<?xml version="1.0" standalone="no"?>
<!DOCTYPE svg PUBLIC "-//W3C//DTD SVG 1.1//EN" "http://www.w3.org/Graphics/SVG/1.1/DTD/svg11.dtd">
<svg xmlns="http://www.w3.org/2000/svg">
<metadata>Copyright (C) 2023 by original authors @ fontello.com</metadata>
<defs>
<font id="equirodi2023" horiz-adv-x="1000" >
<font-face font-family="equirodi2023" font-weight="400" font-stretch="normal" units-per-em="1000" ascent="850" descent="-150" />
<missing-glyph horiz-adv-x="1000" />
<glyph glyph-name="list" unicode="&#xe800;" d="M100 200q20 0 35-15t15-35-15-35-35-15l-50 0q-20 0-35 15t-15 35 14 35 36 15l50 0z m0 200q20 0 35-15t15-35-15-35-35-15l-50 0q-20 0-35 15t-15 35 14 35 36 15l50 0z m0 200q20 0 35-15t15-35-15-35-35-15l-50 0q-20 0-35 15t-15 35 14 35 36 15l50 0z m200-100q-20 0-35 15t-15 35 15 35 35 15l350 0q22 0 36-15t14-35-15-35-35-15l-350 0z m350-100q22 0 36-15t14-35-15-35-35-15l-350 0q-20 0-35 15t-15 35 15 35 35 15l350 0z m0-200q22 0 36-15t14-35-15-35-35-15l-350 0q-20 0-35 15t-15 35 15 35 35 15l350 0z" horiz-adv-x="700" />

<glyph glyph-name="immobilier" unicode="&#xe801;" d="M765 473l46-61h-92l46 61z m-61 80v-122l46 61-46 61z m107 20h-92l46-61 46 61z m159-123v-38h-23v-1h-97v1 161 24h-24-122-24v-24-161-1h-120v39h23v264l190 125 174-125v-264h23z m-181 277h-48v-61h48v61z m37-296v122l-46-61 46-61z m-317 52l-3-4c-4-5-9-7-15-6l-48 12-30-87c-5-12-11-24-20-34l-17-22-11-86h-34v86h-91l-52 7-72-75v-75l12-22h-27l-11 22-7 90 15 38-15 68v60c-9 0-16-7-16-15v-151h-37v142c0 26 20 46 46 46h232l135 121v-23l65-75c4-5 4-12 1-17z m116-496l-4-25h349v-38h-354l-3-25h357v-38h-940v38h252l-2 25h-250v38h247l-2 25h-245v38h178v156c0 32 25 57 57 57h287l167 149v-28l80-93c5-6 6-15 1-21l-4-5c-4-6-11-9-18-7l-59 15-38-107c-5-16-13-30-24-43l-21-27-6-46h340v-38h-345l0 0z m-222 93l-52-55h229v46h-112l-65 9z m-149-55h27l11 27-19 84v74c-10 0-19-8-19-18l0-167 0 0z m326-101h-265v-25h265v25z m0 63h-265v-25h265v25z" horiz-adv-x="1000" />

<glyph glyph-name="agricole" unicode="&#xe802;" d="M942 605c0 38-30 68-68 68-27 0-51-16-62-40-7 4-14 6-23 6-22 0-41-14-48-34-1 0-2 0-3 0-28 0-51-23-51-51s23-51 51-51h204c28 0 51 23 51 51s-23 51-51 51z m-241 98c-6-9-10-19-12-30h-36v-34h36c1-4 2-9 4-13 8 5 17 9 27 11 16 22 41 36 69 36 3 0 6 0 9 0 12 13 28 24 45 29 0 1 0 1 0 1l25 25-24 24-25-25c-9 6-19 10-30 12v36h-34v-36c-11-2-21-6-30-12l-25 25-24-24 25-25z m-106-506h-54c-9 0-17-3-24-8v-332h134l-30 330c-7 6-16 10-26 10z m-53-53l26-13 26 13 16-30-42-21-42 21 16 30z m0-102l26-13 26 13 16-30-42-21-42 21 16 30z m43-153l-42 21 16 30 26-13 26 13 16-30-42-21z m-41 342l-44 44-44-44h3c15 0 29-4 41-12 12 8 26 12 41 12h3z m-139-34c-10 0-19-4-26-10l-30-330h134v332c-7 5-15 8-24 8h-54z m10-308l-42 21 16 30 26-13 26 13 16-30-42-21z m17 102l-42 21 16 30 26-13 26 13 16-30-42-21z m0 102l-42 21 16 30 26-13 26 13 16-30-42-21z m-163 104c-10 0-20-4-28-11l-45-329h118l31 334c-7 4-14 6-22 6h-54z m-7-308l-42 21 16 30 26-13 26 13 16-30-42-21z m17 102l-42 21 16 30 26-13 26 13 16-30-42-21z m17 102l-42 21 16 30 26-13 26 13 16-30-42-21z m565 104h-48c-7 0-14-2-21-6l46-334h134l-71 307c-4 19-21 33-40 33z m-30-53l26-13 27 13 15-30-42-21-41 21 15 30z m102-234l-42-21-41 21 15 30 26-13 27 13 15-30z m-59 81l-41 21 15 30 26-13 27 13 15-30-42-21z m-687 206h-48c-19 0-36-14-40-33l-71-307h134l46 334c-7 4-14 6-21 6z m-78-308l-42 21 16 30 26-13 26 13 16-30-42-21z m17 102l-42 21 16 30 26-13 26 13 16-30-42-21z m17 102l-42 21 16 30 26-13 26 13 16-30-42-21z m493 126c12 8 26 12 41 12h10v179l-187 140-187-140v-179h10c15 0 29-4 41-12 10 6 22 10 34 12v170h204v-170c12-2 24-6 34-12z m95-22h-54c-8 0-15-2-22-6l31-334h118l-45 329c-8 7-18 11-28 11z m-53-53l26-13 27 13 15-30-42-21-41 21 15 30z m102-234l-42-21-41 21 15 30 26-13 27 13 15-30z m-59 81l-42 21 16 30 26-13 27 13 15-30-42-21z m-459 682c28 0 51 23 51 51 0 28-23 51-51 51-1 0-2 0-3 0-7 20-26 34-48 34-8 0-16-2-23-6-11 24-35 40-62 40-38 0-68-30-68-68-28 0-51-23-51-51 0-28 23-51 51-51h204z" horiz-adv-x="1000" />

<glyph glyph-name="chevaux" unicode="&#xe803;" d="M989 634c-2 4-4 7-6 10-27 31-59 58-69 101-3 13-19 20-20 32-2 11 6 24 8 37 0 3 2 7-2 9-4 1-5-4-7-7-8-9-15-19-26-26 1 10 3 19 5 28 0 3 2 7-2 8-4 1-5-3-6-5-16-22-36-38-63-46-19-6-38-13-55-23-27-15-55-29-80-48-24-19-47-37-68-59-11-11-23-25-37-31-28-11-58-16-87-24-1 0-1 0-1 0-1-1-1-1-2-2-1 0-1 0-2 0-1 0-2 0-3 0-1 0-3 0-4-1-2-1-3-2-5-1 0 0-1 0-1 0-6-2-12-4-17-6-10-1-19-2-28-4-43-5-86-6-129 1-50 9-100 13-150 3-18-3-33-15-50-20-31-8-48-29-59-56-13-31-18-65-23-99-4-27-4-55-10-82 3-1 4-2 5-3 0-1 0-3 0-4 0-1 0-1 0-1 0-8 0-16 0-24 0-4 0-8 0-12 0-1 0-1 0-2 3-5 3-11 3-17 2-2 2-5 2-8 0-1 0-3 1-5 0 0 0 0 0 0-1-2-1-3-1-5 0 0 0 0 0 0 0-3 1-6 1-9 0-1 0-1 0-1l-1 0c0 0 1 0 1 0 3-6 5-11 5-18 0 0 0-1 0-1 0-2 0-4 0-6 3-3 0-9 3-12 0 0 1 0 1-1 0 0 0 0 0 0 0 0 0 0 0 0 0-3 0-6 1-9 2-2 2-5 2-8 0-1-1-2-1-2 1-1 2-2 3-3-1-8 6-14 7-20 4-24 12-47 8-72-2-17-5-33-6-50-2-19-5-38 3-56 7-14 6-27 5-41-1-5-1-9-1-14 0-10 5-19 16-23 13-5 26-7 40-5 14 2 17 9 11 21-2 3-5 7-8 9-14 9-18 24-22 38-6 23-1 47-4 70-3 34 3 68 16 100 7 19 20 34 32 50 1-11 0-22 4-32 10-30 11-62 15-93 2-23 0-48 13-68 11-17 17-34 19-53 1-13 9-20 21-24 8-2 16-4 24-4 8-1 19-5 23 4 3 9-5 17-12 23-1 1-2 2-3 3-9 3-14 11-19 19-10 14-15 30-18 47-4 25-12 50-13 76 0 0 0 0 0 0 0 2 0 4 0 5 0 1 0 2 0 2-2 20 1 39 7 58 17 57 45 110 72 163 2 4 4 5 8 4 47-8 95-16 142-23 50-8 100-15 150-12 8 1 10-2 11-9 3-18 3-35 1-53-2-32-4-64-6-96 0-12 3-24 2-37-2-22-4-44-9-67-2-11-6-24 3-33 9-9 11-18 10-30-1-14 4-21 18-25 7-3 13-2 20-2 7-1 15-1 18 7 2 9-3 15-10 19-9 4-12 12-16 19-9 14-5 29-7 44-3 31-4 62 10 92 0 0 0 0 0 0 0 0 0 0 0 0 7-15 9-30 8-46 0-21-1-42-2-63 0-8 1-17 7-22 12-9 13-22 15-35 4-22 10-27 32-27 7 0 14 0 21 2 10 2 13 10 8 19-3 4-6 8-11 10-22 12-29 32-29 55-1 1-2 3-2 4-1 2-1 4 0 7 0 0 0 0 0 0-7 27-11 54-5 81 3 16 6 31 7 47 0 22 1 43 4 65 5 38 18 74 22 112 1 3 1 6 4 9 16 16 25 36 33 56 0 1 0 2 0 3 1 3 1 6 2 9 1 1 2 3 2 4 2 14 4 29 6 43 0 3 1 5 2 7 30 37 48 80 65 123 8 18 16 36 29 52 6 8 13 16 25 8 5-3 11-2 17-3 30-4 57-15 79-36 11-10 34-12 47-2 9 8 17 38 13 49z m-916-367c-2-7-5-15-8-22-6 4 0 11-4 15-2 26 4 51 4 77 3 6-2 12 3 18 2-15 5-30 8-45 0-7 0-14 0-20 0-2 0-3 0-5-1-6-2-12-3-18z m814 439c-5 0-9 4-9 9s4 9 9 9c4 0 8-4 8-9s-4-9-8-9z" horiz-adv-x="1000" />

<glyph glyph-name="horse-1" unicode="&#xe804;" d="M290 655c14 30 42 47 42 47-63 41-73 74-73 74s-17-76 31-121z m550-401c0 0-5 312-373 427 0 0 65-80 81-147 16-67 16-134-63-201 0 0-15-9-15-28 0 0-6-78 22-168 0 0 53-147 37-203 0 0-2-11-8-22 0 0-5-7 3-4 0 0 334 100 316 346z m-302 223c-1 57-34 119-34 119-56 104-93 123-93 123-50 39-62 74-62 74-10-47 0-96 0-96s-59-21-91-159l-23-89c0 0-3-19-13-39l-43-92c-34-61-13-96-13-96 26-55 96-56 96-56 38-1 61 32 71 50 3 7 3 12 3 12-1 2 2 6 5 11 8 15 29 32 29 32l90 68c55 37 79 80 78 138z m-322-239c-6-7-12 2-12 2-18 22 1 46 1 46 6 7 12-1 12-1 20-29-1-47-1-47z m183 314c0 0-20-37-52-29 0 0-6 2-4 7 0 0 8 25 45 28 0 0 15 1 11-6z" horiz-adv-x="1000" />

<glyph glyph-name="directory" unicode="&#xe805;" d="M496 347c92 0 166 74 166 166 0 92-74 166-166 166-92 0-166-74-166-166 0-92 74-166 166-166z m265-92c-12 51-27 64-51 90-25 26-76 27-76 27s-82-56-140-56c-59 0-133 56-133 56s-30-2-57-14c-26-11-48-41-65-85-17-44-19-117-18-155 1-38 31-76 55-86 25-11 55-7 55-7s316-3 350-1c34 1 53 19 62 29 10 10 16 16 26 44 11 28 3 107-8 158z" horiz-adv-x="1000" />

<glyph glyph-name="arrow-right" unicode="&#xe806;" d="M352 679l-55-58 289-271-289-271 55-58 320 300 31 29-31 29-320 300z" horiz-adv-x="1000" />

<glyph glyph-name="heart" unicode="&#xe807;" d="M282 740c-62 0-123-23-171-70-94-93-94-245 0-338l368-363a30 30 0 0 1 42 0c123 121 245 241 368 362 94 93 94 246 0 339-95 93-248 93-342 0l-47-46-47 46c-47 47-109 70-171 70z m0-60c47 0 93-18 129-53l68-67a30 30 0 0 1 42 0l68 67c72 70 186 70 258 0 71-71 71-182 0-253-116-114-231-228-347-341l-347 341c-71 71-71 183 0 253 36 35 83 53 129 53z" horiz-adv-x="1000" />

<glyph glyph-name="tick" unicode="&#xe808;" d="M0 339q0-35 24-60l246-239q24-25 60-25 36 0 60 25l505 495q25 24 25 59t-25 58q-25 25-60 25t-60-25l-445-435-185 181q-25 24-60 24t-61-24q-24-24-24-59z" horiz-adv-x="920.4" />

<glyph glyph-name="etalons" unicode="&#xe809;" d="M831 466l2 27c-3 21-68 5-84 4 1 4-1 29-4 34-8 14-23 27-34 40-19 20-28 62-25 93 15-4 39-13 52-20 10-6 4-4 10-11 21-6 46-3 46 23 0 18-19 29-31 41-16 17 3 13-25 44l-16 20c-4 9 2 16-7 25-12-8-8-19-21-16-28 7-88 17-112-11 0 0 24 11 22 5-1-4-58-28-76-55-12-19 10-15-31-60 7 1 8 3 14 5-16-13-25-25-35-49l8 4c2 1 1 1 4 1 4-1 3-1 5-2-3-19-9-29-17-44l23 7c-7-16-11-57-23-66 24-1 25 18 35 24 7-21-14-44-25-56 55-2 73 35 76 83 3-42 1-72-36-113-29-34-89-45-129-88-4-4-8-9-11-13-55-2-75-63-86-67-5-2-4-1-10-3-39-17-60-112-71-135-15-32-29-32-52-51 36 1 59 14 76 31-12-42-81-41-69-82 45 59 136 13 163 152 12 61 24 87 35 99 3-49 37-97 25-130-7-20-25-31-29-46-3-10 1-10 1-17 0-15-6-17-3-37 3-13 12-69-4-73-11-28 6-18 0-50l65-19c2 40-21 37-17 99 2 31 1 70 16 84 77 69 176 117 46 203 0 0-1 0-1 1 16-9 38-11 56-36 16 9 29 20 47 28 24 10 76 49 97 69 29 26 38 45 56 63 9 10 60 24 76 24 7-15 5-28 0-47-3-14-20-18-33-21-17-5-9-9-11-11-4-4-15 3-22-2-16-10-8-35-5-45 12 2 14 4 23 11 17 13 13 3 24 10 9 5 29 30 40 39 25 20 8 35 12 83z m-110 262c3 0 6-3 6-6 0-4-3-6-6-6s-7 2-7 6c0 3 3 6 7 6z" horiz-adv-x="1000" />

<glyph glyph-name="search" unicode="&#xe80a;" d="M772 78q30-34 6-62l-46-46q-36-32-68 0l-190 190q-74-42-156-42-128 0-223 95t-95 223 90 219 218 91 224-95 96-223q0-88-46-162z m-678 358q0-88 68-156t156-68 151 63 63 153q0 88-68 155t-156 67-151-63-63-151z" horiz-adv-x="789" />

<glyph glyph-name="emploi" unicode="&#xe80b;" d="M669 538l-71 64 1 67-217-199h-305c-20 0-37-7-50-21-14-14-21-31-21-51v-119h50v118l27 40v-148l-27-42 1-163c0-15 12-27 26-27s27 12 27 27l0 132 0 0 102 125 12-10-78-95 64-164c6-14 21-21 34-15 14 5 21 20 16 34l-53 134 39 53 162 0v-194c0-15 12-27 27-27s26 12 26 27v165l109 248 77-18c10-2 18 0 26 6 8 6 12 14 12 24 0 12-6 22-16 29z m101-56c24-5 48 11 52 35 5 24-10 48-34 53-24 5-48-11-53-36-5-24 11-48 35-52z m174-405c5 6 8 12 8 20v266c0 6-2 11-7 15l-97 96c-6 7-14 11-22 11-10 0-25-6-30-20l-37-105-65 22c-12 3-24-5-26-16-3-12 4-24 16-27l23-7c12-15 26-36 27-60 2-48-19-70-38-89-13-12-25-25-28-43-2-21 3-38 16-52 26-27 79-31 107-31 10 0 17 0 18 0h190v20l-55 0z m-136 0c-22-2-85-2-110 25-9 9-12 21-10 36 1 11 10 20 22 32 20 21 46 46 43 103-1 19-7 35-16 49l31-9c2-1 4-1 6-1 9 0 17 6 20 15l19 52 65-67v-215c0-8 3-14 8-20l-78 0z m-156 305c-2 0-4 1-6 3-4 4-4 10-1 14 4 4 10 4 14 0 2-1 3-4 3-6 0-3-1-6-2-8-2-1-5-3-8-3l0 0z m-23 22c-3 0-5 1-7 3-2 2-3 4-3 7 0 3 1 5 3 7 3 4 10 4 14 1 4-4 4-10 0-15-2-2-4-3-7-3l0 0z m-24 22c-2 0-5 1-6 3-2 2-3 4-4 7 0 3 1 5 3 7 4 4 10 4 14 1 2-2 3-5 3-7 1-3 0-6-2-8-2-2-5-3-8-3l0 0z m-23 22c-3 0-5 1-7 3-2 2-3 4-3 7 0 3 1 5 3 7 3 4 10 4 14 1 4-4 4-11 0-14-2-2-4-4-7-4l0 0z m45-79c-1 0-4 0-4 1-2 1-4 2-5 5-1 2-1 5 0 8 1 3 5 6 9 6 0 0 3-1 3-1 5-2 8-8 6-13-2-4-5-6-9-6l0 0z m-30 12c-1 0-3 1-4 1-5 2-7 8-5 13 1 4 5 6 9 6 1 0 3 0 4-1 5-2 7-8 5-12-1-4-5-7-9-7l0 0z m-30 13c-1 0-3 0-4 0-2 1-4 3-5 6-1 2-1 5 0 7 2 4 5 7 9 7 1 0 3-1 4-1 5-2 7-8 5-13-1-4-5-6-9-6l0 0z m76-54c-5 0-10 4-10 10s5 10 10 10c6 0 10-5 10-10s-4-10-10-10l0 0z m-32 0c-6 0-10 4-10 10s4 10 10 10c5 0 10-5 10-10s-4-10-10-10l0 0z m-32 0c-6 0-10 4-10 10s4 10 10 10c5 0 10-5 10-10s-5-10-10-10l0 0z m-33 0c-5 0-9 4-9 10s4 10 9 10c6 0 10-5 10-10s-4-10-10-10l0 0z" horiz-adv-x="1000" />

<glyph glyph-name="camion" unicode="&#xe80c;" d="M0 399v-186-9-31l76-20h93c0 19 5 37 14 52 17 29 49 48 86 48 45 0 84-30 96-72 0-1 0-2 0-2 1-3 2-7 2-10 0-1 1-2 1-3 0-4 0-8 1-11 0-1 0-1 0-2h255l-624 246z m58 166h129l-29-68h-100v68z m148 0h107v-68h-136l29 68z m568 19h79l25-60h-104v60z m-774 29v-158l642-289 37 332h244l-53 115h-870z m977-320h-47l-99 38h-1v120h93l40-120 14-38z m-168 39h-97l13 120h84v-120z m190-179v138l-67 183h-228l-38-321h72c0 56 45 100 100 100 39 0 73-22 89-54 6-12 10-25 11-38 0-3 0-5 0-8h61z m-161-40c-22 0-40 18-40 40 0 23 18 41 40 41 22 0 40-18 40-41 0-22-18-40-40-40m0 114c-40 0-73-33-73-74 0-40 33-73 73-73 41 0 74 33 74 73 0 41-33 74-74 74m-569-114c-23 0-41 18-41 40 0 23 18 41 41 41 22 0 40-18 40-41 0-22-18-40-40-40m0 114c-41 0-74-33-74-74 0-40 33-73 74-73 40 0 73 33 73 73 0 41-33 74-73 74" horiz-adv-x="1000" />

<glyph glyph-name="marketplace" unicode="&#xe80d;" d="M918 445h-835c-34 0-62-27-62-61 0-29 20-53 47-60l85-400c0-38 30-68 67-68h571c37 0 67 30 67 68l86 405c21 10 35 31 35 55 0 34-28 61-61 61z m-621-443c0-12-9-21-21-21h-6c-11 0-21 9-21 21v247c0 11 10 21 21 21h6c12 0 21-10 21-21v-247z m155 0c0-12-10-21-22-21h-5c-12 0-21 9-21 21v247c0 11 9 21 21 21h5c12 0 22-10 22-21v-247z m154 0c0-12-10-21-21-21h-6c-12 0-21 9-21 21v247c0 11 9 21 21 21h6c11 0 21-10 21-21v-247z m154 0c0-12-9-21-21-21h-6c-11 0-21 9-21 21v247c0 11 10 21 21 21h6c12 0 21-10 21-21v-247z m-530 546c19 133 133 235 271 235 139 0 253-102 272-235 3-46 62-39 62 0-20 166-162 296-334 296-172 0-313-130-333-296 0-48 62-50 62 0z" horiz-adv-x="1000" />

<glyph glyph-name="cart" unicode="&#xe80e;" d="M922-103l-71 671c-1 18-17 32-35 32h-159v106c0 78-71 142-159 142s-159-64-159-142v-106h-159c-18 0-34-14-36-32l-70-671c-2-20 12-37 31-39 1-1 3-1 4-1h778c19 0 35 16 35 36 0 1 0 2 0 4z m-512 809c0 39 39 71 88 71 49 0 88-32 88-71v-106h-176v106z m-262-778l64 601h127v-70c0-20 16-36 35-36s36 16 36 36v70h176v-70c0-20 16-36 36-36 19 0 35 16 35 36v70h127l64-601h-700z" horiz-adv-x="1000" />

<glyph glyph-name="message" unicode="&#xe80f;" d="M667 815h-334c-183 0-333-150-333-334v-88c0-145 93-271 227-316-17-29-40-74-73-146-6-12-3-27 6-36 7-7 15-10 23-10 5 0 10 1 14 3l375 172h95c183 0 333 149 333 333v88c0 184-150 334-333 334z m268-422c0-148-120-268-268-268h-102c-5 0-9-1-14-3l-299-137c20 39 38 73 47 84 8 5 14 13 15 24 2 17-10 33-27 36-128 22-222 134-222 264v88c0 148 120 269 268 269h334c148 0 268-121 268-269v-88z" horiz-adv-x="1000" />

<glyph glyph-name="poney" unicode="&#xe810;" d="M991 505c-3 8-8 15-15 20 5 27-2 46-2 47l-1 5-4-2c-16-10-23-21-27-33 0 0 0 0-1 1l-6 24h-3c-1 0-158 26-228-79-4-4-8-6-12-8l-39 40 0 0-34 62-5 15 2 35 0 0c-4 25-16 46-28 64l0 0 4 8 7-1c5-1 11 0 15 3 4 4 7 8 7 14v0l11 3-4 26 18-6-7 16c1 7 1 29-13 45-8 10-22 15-37 15h-3c-55-2-56-74-56-75v-4h14l10-16c-3-3-4-6-4-9-6-2-14-6-22-14-12-12-32-38-28-84 4-53-9-69-20-83-3-3-6-7-8-10-13-20-6-33-6-33l3-3 3 2c5 3 11 8 15 12 0 0 0-1 0-2 1-15 9-30 19-44-19 1-35 3-47 8-49 20-130 19-180-15-7-1-48-7-79-32-16-12-28-32-40-50-14-22-29-45-48-56-32-19-50-21-79-16-9 2-18-1-25-7-4-3-6-6-4-9 1-5 8-6 14-6 6 0 11-1 16-1-5-2-8-3-10-6-6 1-10-3-9-7 2-5 9-7 11-7l0 0h1c1 0 6 1 13 3l-10-5-4-2 3-4c11-16 27-27 46-31 5 0 9 0 14 0 14 0 29 4 42 14 39 28 60 54 63 76 4 46 12 95 49 109-35-65-25-157-20-185 4-32-39-83-40-84l-1-1v-2c2-63-28-117-35-128-7 0-16-2-19-3l0 0c-1 0-4 0-6-1-7-3-12-17-13-40v-1l2-13 1-1c1-1 3-2 8-2 6 0 16 3 31 18l0 0 36 30v2c1 7 8 39 11 54 3 41 51 90 52 91l42 54c16 10 30 23 40 36 2 2 4 4 5 6 9 12 15 24 20 37l1-1c9 8 13 8 15 7 8-19 31-36 61-50 2-1 4-2 7-3 64-30 157-49 200-57 3-1 5-1 8-1 7-2 12-3 15-3 8-10 19-25 29-42 2-2 3-4 5-7 19-31 37-63 40-69 0-10 8-20 10-22l0-1c11-5 21-30 24-40l22-63h8l7-8-6-17 0 0v-1c-1-5 1-9 4-12 6-6 18-8 30-8 10 0 18 1 25 2 2 1 5 2 5 5 1 2 0 4-2 6-4 4-8 9-13 17l-2 3c-26 41-55 114-55 115-1 4-9 40-17 48-5 5-18 65-29 121 20 29 30 53 39 78 6 17 13 33 22 51 7 13 16 26 24 37-1 1-4 2-5 3-1 0-1 1-2 1-63 28-130 71-156 88-2 2-4 3-6 4 4 1 8 2 10 3 29-20 94-62 156-89 2-1 5-3 7-3 26-11 51-20 72-23 0-1 0-2 1-4 1-1 1-3 1-5 0 0 0-1 0-1-2-8 1-16 8-20l17-10h1c11-4 24-3 35 3l6 4c5 3 9 10 9 17-4 32 1 60 1 60 13 57 8 93 2 113z m-873-547l-1 8c1 24 6 31 7 34 3-20 11-27 18-31-14-12-21-12-24-11z m726-52c5-8 10-14 13-18-23-3-40-1-45 4-2 2-2 3-2 5 3 1 12 12 34 9z m-184 582c2-2 3-4 2-7-1-2-2-4-4-6-4-2-8-1-12 2l-12 14 15 13 11-16z m-70 224h-3l-4-10c-11 13-20 22-22 24l0 0-5 8 24-7 10-15 0 0z m30 39l4-23-9-1-1-7c0-3-2-6-4-7-3-3-6-3-9-3h-1l-13 21 12 27 21-7z m-55 7c10 8 25 3 25 3l2-1-11-25-24 7c1 7 3 12 8 16z m16-89v-1l12-71 32-40 0 0 22-41-61 77-12 74c-9 19-37 15-37 15l0 8c0 0 33 5 44-21z m36-210c-6 0-13-1-20-1l-19 48c1 0 1 0 3 0l0 0 36-47z m-123 42c0 4 0 8 1 13 3 5 7 10 9 15 9-5 39-17 65-22l21-50 3-8 14-34c-11-23-53-114-53-144l-29 5c2 6 6 17 6 31 0 17-1 69 29 97l3 3-4 3c0 0-20 17-39 38-2 2-4 5-6 8-11 14-20 30-20 45z m10-52c2 0 4 0 6 0 16-20 34-35 41-42-18-19-24-46-26-67-30 15-23 91-21 109z m25-219l-6 5v-12l-7 2v10c0 6 7 21 12 32l18-3c-1-7 1-15 5-22 5-8 13-15 21-16 7-2 9-4 10-4v-1c-26-12-52 9-53 9z m105 163c-2-50-34-63-57-65 11 28 24 60 37 86l0 1-14 35c16 2 30 3 43 5-4-9-8-27-9-62z m-8 67l0 0-35 45c2 0 4 0 6 0 10-11 17-21 21-24l3-1 7 6 13-14c3-4 8-6 12-6 3 0 6 1 9 2 1 0 1 1 1 1 1-1 3-2 4-2-10-2-24-4-41-7z m59 14c-3-2-5-4-6-4 0 0-1 0-1 0-4 2-7 4-9 6 1 1 1 2 2 4 0 4 0 9-4 13l-9 12 30-30c-2-1-3-1-3-1z m290-33c1-2 1-6-1-10-3 1-7 2-9 6-2 2-2 5-2 8l1-1h1c2 0 9-1 10-3z m-6 124c2-11 6-40-13-72-6 14-18 50 13 72z m-23-65c2-9 6-16 7-17l-6-95-8-2 7 114z m-222 1c67 74 186 61 204 59l4-16c-81 25-159-12-208-43z m119-126c2 3 4 5 5 7 12 14 22 25 26 29 9-6 20-26 29-47 2-3 3-6 4-9-18 3-40 10-64 20z m70-13c-2 3-3 7-5 10l31 6-1-8 1-9-24-7c0 3-1 5-2 8z m28-49l-17 10c-4 3-6 7-4 11 1 2 1 4 1 6 0 2 0 3-1 5 0 1-1 2-1 2l23 6 9-42c-4 0-7 1-10 2z m34 7l-4-2c-1 3 0 8 2 11 1 2 3 3 6 4 0-2 0-3 0-4 1-3-1-7-4-9z m4 21c-5-1-9-4-12-8-4-6-4-14-3-18-1-1-4-2-5-2l-12 58 1 9 33 6c-1-8-3-25-2-45z m-288-225c-2 2-3 5-4 7-11 17-20 30-27 40-1 0-13 2-13 2-1 0-6 1-8 2l-7-46c-6-12-4-25-4-39 1-12 2-24 0-35-5-18-51-53-72-68-3 4-7 6-11 7-4 1-7-1-9-2-3 1-7 1-10-1-15-8-24-41-25-45-2-8 10-13 12-14l2-1 29 14-1 4 1-3c0 0 28 17 46 17h1l2 1c19 23 53 59 63 62l2 1 16 25 0 2c4 14 12 47 21 67-3 1-3 2-4 3z m-176-183c-3 1-6 3-6 4 3 9 10 34 21 39 0 1 1 1 3 1-1-10-1-27 2-35l-20-9z m-26-13l-16 27c0 0 0 0 0 1l0 0c-3 7-31 74-51 107-19 31-8 66-7 70 16 27 17 76 17 82l5 16h-1c-2 0-5 2-7 4-30 14-51 31-61 48-2-1-4-2-5-4-6-12-12-25-20-35-1-2-3-5-4-6l-1-1c12-14 32-48 13-116v-2l1-1c23-45 61-121 61-128l0-2 6-6c-1-2-2-5 0-8 1-2 2-4 6-4l6-11c-3-4-8-15-6-23l11-12 48-4h0c2 0 3 1 5 2 1 2 1 4 0 6z m-48 3l-6 6c6 5 20 16 33 13l12-22-39 3z" horiz-adv-x="1000" />

<glyph glyph-name="umbrella" unicode="&#xe811;" d="M500 780c-217 0-394-177-394-394 0-14 11-25 25-25s25 11 25 25c0 37 30 67 67 67s67-30 67-67c0-14 11-25 25-25s25 11 25 25c0 4 0 8 1 13 0 0 0 0 0 0 6 31 33 54 66 54 37 0 67-30 67-67v-381c0-2 0-3 0-4 0-1 0-3 0-4 0-14-12-26-26-26-14 0-26 12-26 26 0 14-11 25-25 25s-25-11-25-25c0-42 34-76 76-76 42 0 76 34 76 76 0 2 0 3 0 4 0 1 0 3 0 4v381c0 37 30 67 67 67 33 0 60-23 66-54 0 0 0 0 0-1 1-4 1-8 1-12 0-14 11-25 25-25s25 11 25 25c0 37 30 67 67 67s67-30 67-67c0-14 11-25 25-25s25 11 25 25c2 217-175 394-392 394z m-277-277c-18 0-35-4-51-12 36 109 124 194 234 226-78-64-103-167-111-238-20 15-45 24-72 24z m185 0c-23 0-43-6-61-18 10 72 40 173 129 215v-219c-20 15-43 22-68 22z m184 0c-25 0-48-8-67-21v219c88-43 118-143 128-215-17 11-38 17-61 17z m185 0c-27 0-52-9-71-24-8 71-33 175-111 238 110-31 198-116 233-225-16 7-33 11-51 11z" horiz-adv-x="1000" />

<glyph glyph-name="pin" unicode="&#xe812;" d="M483 816c-171 0-310-132-310-295 3-39 3-81 22-134 62-155 154-297 290-440 139 143 232 285 290 440 18 53 19 95 18 134 0 163-138 295-310 295l0 0z m0-176a137 137 0 0 0 138-137 137 137 0 0 0-138-138 137 137 0 0 0-137 138 137 137 0 0 0 137 137z m-284-734a20 20 0 1 1 0-40h569a20 20 0 1 1 0 40h-569z" horiz-adv-x="1000" />

<glyph glyph-name="coupon" unicode="&#xe813;" d="M594 225c-17 0-31-14-31-31s14-31 31-31 31 14 31 31-14 31-31 31z m360 125l44 114c5 13 1 27-10 36l-95 77-19 121c-2 13-13 24-26 26l-121 19-77 95c-6 8-15 12-23 12v0c-5 0-9-1-12-2l-115-44-114 44c-13 5-27 1-36-10l-77-95-121-19c-13-2-24-13-26-26l-19-121-95-77c-11-9-15-23-10-36l44-114-44-114c-5-13-1-27 10-36l95-77 19-121c2-13 13-24 26-26l121-19 77-95c9-11 23-15 36-10l114 44 114-44c4-1 8-2 12-2 9 0 18 4 24 12l77 95 121 19c13 2 24 13 26 26l19 121 95 77c11 9 15 23 10 36l-44 114z m-548 250c52 0 94-42 94-94 0-51-42-93-94-93-51 0-93 42-93 93 0 52 42 94 93 94z m188-500c-52 0-94 42-94 94s42 94 94 94 94-43 94-94-43-94-94-94z m88 451l-313-438c-6-8-15-13-25-13-6 0-13 2-18 6-14 10-18 29-8 43l313 438c6 9 16 13 26 13 6 0 12-2 18-6 14-10 17-29 7-43z" horiz-adv-x="1000" />

<glyph glyph-name="magazine" unicode="&#xe814;" d="M982 643c-11 5-25 0-31-11l-272-586c-105-13-196-13-274-6 77-3 156 4 227 26 6 2 11 7 14 12l264 548c6 12 1 26-10 31-12 6-26 1-32-10l-260-539c-105-31-231-25-337-9 124 4 223 20 294 49 5 3 10 7 12 12l256 518c4 8 3 18-2 25-6 7-15 10-24 8-2 0-262-57-505-59-8 0-16-5-20-12l-275-496c-3-7-4-15 0-22 2-4 4-6 7-8 0 0-1 0-1 0 8-6 168-126 492-126 58 0 123 4 192 13 8 2 15 7 18 14l279 597c5 12 0 26-12 31z m-706-196l55 96c1 3 5 4 8 4 112-2 311 28 313 28 4 1 7-1 9-4 2-3 2-6 1-9l-48-97c-1-2-4-4-7-4-136-27-321-28-323-28-3 0-6 2-8 5-1 3-1 6 0 9z" horiz-adv-x="1000" />

<glyph glyph-name="saddle" unicode="&#xe815;" d="M777 289c-17 53-24 107-19 160-7-4-15-9-23-12-30-14-62-21-97-21-45 0-90 11-134 21-44 10-90 21-135 21-12 0-24-1-35-2-1 0-2 0-3 0 0 0 0 0 0 0-1-1-1-1-2-1l-1 0-1 0c-23 2-46 5-68 11 0 0 0 0 0 0-86 22-169 75-234 153-1-3-2-5-3-7-8-22-20-34-16-69 16-127 206-128 335-108 0 0 0 0 0 1 1 0 2 0 2 0 41-99 47-215 74-306 34-114 107-178 271-164 93 9 177 45 236 100-70 65-121 142-147 223z m35 298c-6 33-33 74-55 78-5 1-10 1-14 1 15-15 37-41 50-74 1-1 1-3 2-4 7-16 11-31 12-46 0-6 0-12 0-18 1 10 2 19 4 29 1 4 1 9 2 13 1 6 1 14-1 21z m184-337c-9 141-89 230-185 303-2-10-3-19-4-29 0-2-1-4-1-5-2-15-8-28-16-40-26-149 44-292 154-393 0 0 0 0 0-1 1 1 1 1 1 1 31 38 55 102 51 164z m-957 388c79-95 184-153 288-159l1 0c13 2 27 3 41 3 48 0 95-11 141-22 44-10 86-20 128-20 32 0 60 6 87 18 16 7 28 16 37 25 3 3 5 6 7 8 13 18 17 38 12 62-1 4-2 7-3 11 1-5 1-11 1-16 0 5 0 11-1 16-2 6-4 12-7 18l0 1c-13 34-37 58-51 73l-4 3c-17 17-56 35-92 41-4 0-8 1-12 1-30 0-56-20-83-42-22-17-46-35-73-43-12-4-30-6-53-6-33 0-71 4-93 8-10 2-207 78-217 87-18 15-49 31-71 31-6 0-11-1-15-3-9-17-1-29 12-48 9-13 19-28 20-47z m679-34c0-11-16-16-23-5-5 22 23 22 23 5z" horiz-adv-x="1000" />

<glyph glyph-name="user" unicode="&#xe816;" d="M500 362c-251 0-455-205-455-456v-55h66v55c0 215 175 389 389 389 214 0 389-174 389-389v-55h66v55c0 251-204 456-455 456z m-11 22c129 0 233 104 233 233 0 128-104 233-233 233s-233-105-233-233c0-129 104-233 233-233z m0 399c92 0 166-74 166-166 0-92-74-167-166-167s-167 75-167 167c0 92 75 166 167 166z" horiz-adv-x="1000" />

<glyph glyph-name="trophy" unicode="&#xe817;" d="M719 828h-438a30 30 0 0 1-30-30v-62h-99a70 70 0 0 1-66-94l35-98a167 167 0 0 1 143-108 241 241 0 0 1 122-137v-92h-29a30 30 0 0 1-28-20l-60-168a73 73 0 0 1 1-147h461a73 73 0 0 1 0 147l-60 168a30 30 0 0 1-28 20h-29v92a241 241 0 0 1 122 136 167 167 0 0 1 143 109l35 98a70 70 0 0 1-66 94h-99v62a30 30 0 0 1-30 30z m-541-263l-36 98a10 10 0 0 0 10 13h99v-162c0-5 0-10 1-16a106 106 0 0 0-74 67z m566-619a13 13 0 0 0-13-14h-462a13 13 0 0 0 0 27h462a13 13 0 0 0 13-13z m-77 73h-334l45 128h244z m-113 188h-108v72a240 240 0 0 1 45-5h18a240 240 0 0 1 46 5z m135 307a180 180 0 0 0-180-180h-18a180 180 0 0 0-180 180v254h378z m159 162a10 10 0 0 0 10-13l-36-98a106 106 0 0 0-74-67c0 6 1 11 1 17v161z" horiz-adv-x="1000" />

<glyph glyph-name="vans" unicode="&#xe818;" d="M946 198h-140v355 28 47c0 18-15 33-33 33h-266c-3 0-7 0-10-1l-1 1-7-5c-2-1-4-3-6-5l-87-70h-297c-20 0-37-16-37-36v-360h-13c-6 0-10-4-10-9v-24c0-5 4-9 10-9h13v-5l133 1c0 0 0 0 0-1 0-55 45-99 100-99 54 0 99 44 99 99 0 1 0 2 0 3l42 1c1-55 45-98 100-98 54 0 99 44 99 99 0 2 0 4 0 6l171 0 0 19h140c8 0 15 7 15 15 0 8-7 15-15 15z m-590-60c0-34-28-61-61-61s-62 27-62 61 28 61 62 61 61-27 61-61z m241 5c0-34-28-61-61-61-34 0-61 27-62 60l0 0c0 0 0 1 0 1 0 34 28 61 62 61 4 0 8 0 12-1 1 0 3-1 5-1 2-1 4-2 6-2 2-1 5-3 7-4 1-1 2-1 3-2 3-2 5-4 8-6 0 0 0 0 1-1 11-10 18-25 19-41l0 0c0-1 0-2 0-3z" horiz-adv-x="1000" />

<glyph glyph-name="bell" unicode="&#xe819;" d="M793 246v185c1 106-55 203-146 255 0 5 0 10 0 15 0 81-66 147-147 147-81 0-147-66-147-147 0-5 0-10 1-15-92-52-148-149-147-255v-185c-104-28-176-123-176-230 0-14 11-24 24-24h283c11-81 81-141 162-140 82-1 152 59 165 140h280c13 0 24 10 24 24 1 107-72 202-176 230z m-293 554c52 0 96-40 99-92 0 0-1 0-2 0-2 1-4 1-6 2-8 3-16 5-23 7-3 0-5 1-8 1-8 2-16 3-24 4-2 0-4 1-5 1-21 2-41 2-61 0-2 0-4-1-5-1-9-1-17-2-25-4-3 0-5-1-7-1-8-2-17-5-25-7-2-1-3-1-5-2-1 0-1 0-2 0 3 52 47 92 99 92z m0-900c-55-1-103 38-113 92h230c-13-55-61-93-117-92z m143 139h-563c11 83 73 149 155 164 11 2 19 12 19 24v204c0 95 54 181 139 222 50 23 107 30 161 18 18-4 36-10 53-18 85-41 139-127 139-222v-204c0-12 8-22 19-24 82-15 145-81 155-164h-277z" horiz-adv-x="1000" />

<glyph glyph-name="arrow-left" unicode="&#xe81a;" d="M648 679l-320-300-31-29 31-29 320-300 55 58-289 271 289 271-55 58v0z" horiz-adv-x="1000" />

<glyph glyph-name="visibility" unicode="&#xe81b;" d="M443 477c-144 0-316-171-323-178-15-15-15-40 0-55 7-7 180-178 323-178 144 0 316 171 323 178 15 15 15 40 0 55-7 7-180 178-323 178z m-1-339c-73 0-132 59-132 132s59 131 132 131 132-59 132-131-60-132-132-132z m-136 246c-26-31-42-71-42-114 0-41 14-79 37-109-67 40-125 93-143 110 18 17 78 72 148 113z m275-225c24 30 39 69 39 111 0 45-17 86-44 117 71-41 133-98 152-115-18-18-78-73-147-113z m-161 406v170c0 13 7 23 20 23 13 0 20-10 20-23v-170c0-13-7-23-20-23-13 0-20 10-20 23z m226-57l108 108c9 9 24 9 33 0 9-9 9-24 0-33l-108-108c-5-5-10-7-16-7s-12 2-16 7c-10 9-10 24-1 33z m237-80l-90-37c-3-1-6-2-9-2-9 0-18 5-21 14-5 12 1 25 13 30l90 37c12 5 25-1 30-13 5-11-1-25-13-29z m-350 126l64 154c5 12 18 17 30 13 12-5 17-18 13-30l-64-154c-4-9-12-14-21-14-3 0-6 1-9 2-13 3-18 17-13 29z m-425 30c-9 9-9 24 0 33 9 9 24 9 33 0l108-108c9-9 9-24 0-33-5-5-10-7-16-7-6 0-12 2-16 7l-109 108z m3-195c-3 0-6 1-9 2l-90 37c-12 5-17 18-13 30 5 12 19 17 31 12l90-37c12-5 17-18 13-30-5-9-13-14-22-14z m145 301c-5 12 1 25 13 30 12 5 25-1 30-13l64-154c5-12-1-25-13-30-3-1-6-2-9-2-9 0-18 5-21 14l-64 155z m186-322c-55 0-100-45-100-100s45-100 100-100 100 45 100 100-45 100-100 100z m0-154c-30 0-54 24-54 54s24 54 54 54c30 0 54-24 54-54s-24-54-54-54z" horiz-adv-x="1000" />

<glyph glyph-name="ane" unicode="&#xe81c;" d="M726-140c-7 1-8 2-15 4-9 4-11 5-11 9 0 1 0 2-1 2 0 0-3 1-7 1-3 0-7 1-9 1-1 0-5 1-9 1-11 1-16 2-17 4-2 2-2 4 0 6 1 1 1 2 1 3 0 1 4 6 9 11 2 2 4 5 5 6 1 1 2 2 2 2 3 3 9 7 13 10 5 3 9 6 10 9 2 2 4 11 7 20 2 9 5 23 7 32 3 12 5 22 7 29 0 3 1 6 1 7 1 3 2 8 3 16 1 8 0 53-2 77-1 8-3 21-3 23-1 2-4 9-5 10 0 1-1 3-2 4-2 4-3 5-8 12-1 2-3 5-3 6-1 1-2 3-3 4-1 2-3 4-4 6-1 1-2 3-2 4-1 0-2 3-3 4-1 2-3 4-3 5-1 1-2 3-3 4-1 2-3 4-3 6-4 6-7 9-8 12-1 2-2 4-4 5-1 1-2 3-3 5-3 4-5 5-6 5-1 0-3-1-6-2-2-1-5-2-6-2-4-1-11 0-14 1-4 2-7 5-9 9-1 3-1 4 0 10 0 6 0 7-3 8-5 1-8 2-15 2-7 0-9-1-26-7-4-1-10-3-14-3-4-1-9-2-11-2-6-2-18-4-19-3 0 0-1 0-3-1-2 0-6 0-11 0s-8-1-8-1c-1 0-31-1-47-1-21 0-41 2-61 5-1 0-5 1-8 1-9 2-29 5-39 7-9 2-22 6-25 8 0 0-2 1-4 2-2 1-5 2-6 4-3 2-4 2-6 2-4 0-5-1-8-4-2-4-3-7-2-14 0-5 0-7-1-11-1-2-2-10-2-17-1-6-2-12-2-12 0-1 0-6-2-22 0-4 0-22 0-41l-1-33-2-8c-2-4-4-9-4-11-1-3-4-9-6-15-2-5-3-10-4-11 0-1 0-16 0-49 0-26 0-50-1-52 0-4 0-6-2-8-2-4-4-7-9-11-5-5-7-10-7-13 0-1 0-4 1-6 2-5 2-8-1-13-9-13-21-22-32-25-6-2-33-3-42-2-12 2-14 2-16 3-3 0-7 4-7 6-1 3-1 8 1 14 2 8 3 11 6 15 1 2 2 3 2 4 0 0 0 1 1 3s2 3 2 3c0 0 4 5 7 8 4 5 11 9 19 13 6 3 9 5 10 7 0 2 1 5 1 10 0 12 1 16 6 28 5 11 5 16 6 44 0 20 0 25 1 29 2 6 0 23-5 34-3 9-3 12-1 27 0 2 1 6 1 7 0 3 0 5-1 12-2 5-3 13-3 18 1 8-1 19-7 39 0 2-1 5-2 6-1 5-4 17-8 27-1 3-1 5-1 6s-1 1-1 2c-1 2-3 7-4 13-4 11-4 13-10 25 0 1 0 1-1 2 0 0-1 2-1 3-1 1-2 3-2 4-2 4-5 9-5 10 0 0 0 1-1 1 0 0-1 1-1 2s-2 4-3 6c-1 1-3 4-4 5-4 6-7 11-9 13-1 2-3 5-5 7-8 11-11 14-18 18-3 1-7 3-8 3-2 1-5 1-6 2-2 0-5 1-7 2-2 0-6 1-8 1-5 1-9 2-10 3-1 1-2 3-4 6-1 3-3 7-5 10-1 2-2 4-2 4s-1 2-3 4c-4 5-9 14-10 17-2 5-2 9 0 13 0 2 2 6 2 9 1 5 1 6 1 22 0 9 0 23 0 30-1 8-1 15-1 17 0 3-2 28-3 34 0 2-1 6-1 9-2 11-4 17-5 20-1 1-8 18-9 23-3 8-3 15-1 20 1 2 2 3 5 4 2 2 3 3 5 7 4 7 8 15 9 18 1 5 0 18-1 25-2 5-3 8-8 13-3 3-6 6-7 7-1 2-3 4-4 6-1 1-3 4-4 5-1 2-2 4-3 5-1 1-3 4-4 6-2 3-4 6-5 7-1 2-2 4-3 5-1 1-3 4-4 5s-3 3-3 4c-1 2-2 3-2 4-2 1-5 7-7 11 0 2-1 4-2 5 0 0 0 1 0 2-1 1-1 2-1 3-1 1-1 2-1 2 0 1 0 2-1 2 0 0-1 5-3 13-1 1-1 4-1 6-1 3-1 6-1 7-1 3-1 9 0 12 1 0 2 2 2 2 2 1 4 0 13-6 4-3 8-6 8-6s4-2 6-4c2-1 4-3 4-3 1 0 2-1 4-2 2-1 4-2 6-3 10-6 16-13 24-24 1-2 3-5 4-6 1-1 2-2 2-3 0 0 2-3 4-8 3-4 6-9 7-11 1-1 3-4 5-5 2-2 5-6 8-8 5-5 6-6 9-6 2 0 4 1 3 3-1 7 0 9 10 21 2 4 4 5 7 5 4 0 6-1 13-6 9-7 10-9 9-16 0-5 0-5 1-6 2-2 5-2 7-1 2 1 4 4 6 10 1 2 3 6 5 9 1 3 3 7 3 8 1 3 4 10 5 11 1 0 2 4 4 8 2 6 4 9 6 11 1 2 3 5 4 6 0 1 1 2 2 3 3 1 9 18 17 45 3 13 6 21 10 28 1 2 2 4 3 4s2 0 3-1c7-4 12-11 16-24 4-14 4-33 0-55-3-14-4-18-7-29-2-9-11-41-14-53-4-12-4-10 3-17 5-5 10-13 12-16 0-1 1-5 3-8 2-4 4-7 4-8 0 0 0-1 1-2 1 0 1-2 1-3 1-3 3-10 6-18 0-1 1-2 1-3 1-3 3-8 4-11 2-2 4-4 9-5 1 0 7-2 12-4 6-1 13-3 16-4 3-1 7-2 7-2 1 0 6-1 11-3 5-1 13-3 18-4 4-2 14-4 21-6 16-4 31-8 46-12 3-1 8-2 10-3 2 0 6-1 7-1 11-3 22-6 25-6 10-2 26-1 42 1 2 0 5 0 6 0 1 1 3 1 5 1 2 1 7 2 13 3 12 2 21 3 34 7 12 3 15 3 21 5 2 0 6 1 8 1 11 3 15 4 22 5 4 0 8 1 10 1 1 1 4 1 6 2 2 0 6 1 9 1s6 1 7 1c2 1 9 2 15 2 10 2 14 2 22 3 5 0 20 0 24 0 2-1 4-1 6-1 2 0 12-2 14-3 4-1 11-4 13-4 1-1 3-2 5-2 6-2 14-7 20-10 15-9 18-12 25-19 7-7 10-11 19-23 3-4 6-8 6-8 1-2 3-4 8-11 6-8 9-14 11-18 7-12 9-19 10-40 0-7 1-15 1-19 1-5 4-13 7-19 2-5 13-27 15-30 1-1 2-3 2-5 2-4 4-8 8-14 2-2 4-6 5-8 1-1 3-5 5-7 1-3 4-8 6-11 2-4 4-8 6-10 1-1 3-4 4-6 1-3 2-5 3-6 3-4 8-8 15-12 4-2 8-4 9-4 2-2 11-3 18-4 10-1 17-3 28-9 9-6 13-10 24-27 2-3 4-7 5-8 0-1 1-2 1-2 1-1 2-4 2-5-1-1-9-4-13-5-2 0-10 0-18 0l-14 0-5 1c-2 1-5 2-6 2 0 0-1 0-1 1-1 0-3 1-5 3-4 3-9 7-15 11-2 3-4 4-5 4 0 0-2 2-4 4s-4 3-6 4c-7 5-23 22-30 33-5 6-8 10-9 11-1 1-2 3-2 3 0 1-1 3-3 5-1 1-3 4-4 6-1 2-2 3-2 3 0 0-1 2-2 3-1 2-2 3-2 3 0 1-1 2-2 4-1 3-2 5-7 13-2 3-3 5-3 6s-1 1-2 3c-1 1-3 4-4 6-1 2-3 5-3 6-1 1-2 3-2 4s-1 2-2 3c-1 1-2 4-3 5-5 8-6 9-7 9 0-1-1-2-1-3 0-1-2-6-3-10-1-5-2-9-3-11-2-7-3-11-5-17-1-4-3-9-3-11-1-2-2-3-2-4 0 0 0-2-1-4-1-2-2-4-3-5 0-2 0-3-1-5 0-1-1-4-2-8-2-6-2-7-3-13 0-2-1-5-1-7 0-3-1-11-2-29-1-10 0-29 1-32 1-3 4-11 5-14 1-1 2-2 2-3 0 0 0-1 1-2s1-2 1-3c0 0 0-1 1-2 0-1 2-4 2-6 1-2 2-5 3-6 0-1 2-5 4-8 1-4 3-8 4-10 1-1 2-3 2-5 1-1 2-5 4-8 1-3 3-7 4-9l1-4-1-6c-1-3-2-7-3-10-3-12-7-37-9-50-1-14-1-41 0-53 1-2 1-4 1-6 0-2 1-6 1-10 0-4 1-10 0-16 0-14 0-19 1-22 0-4 3-15 4-20 0-5 0-11 0-15-1-4-4-8-8-14-2-2-4-5-5-6-2-3-3-3-7-5-2-1-5-3-6-3-1 0-3 0-4-1l-3-1 0-3c0-2 1-5 1-5 0-1 1-5 1-9l0-7-1-3c-1-2-3-4-3-5-1-1-2-2-3-3-2-4-8-7-16-9-6-2-7-2-14-2-5 0-11 1-15 1l0 0z m-234 380c1 0 4 0 8 0 8 0 18 1 23 2 2 0 5 0 7 1 2 0 5 0 7 0s4 1 5 1c6 1 16 3 18 3 1 1 4 1 5 1 3 1 4 1 11 3 9 3 15 6 19 11 3 3 0 8-5 9-2 1-9 2-12 2-1 1-3 1-4 1-6 0-17 1-29 1-16 0-52-1-61-1-12-1-36-1-43 0-11 2-29 4-36 5-4 0-11 1-16 2-5 1-12 2-14 2-3 0-6 1-8 1-1 0-4 0-6 1-2 0-6 0-10 1-7 1-24 1-28 0-4 0-8-1-8-3-1-1 1-6 3-8 2-3 9-8 12-10 2-1 3-1 3-2 1 0 1 0 1 0 1 0 2-1 3-1 1-1 3-2 5-3 2 0 4-1 5-2 2 0 3-1 4-1 0 0 2 0 2 0 1-1 5-2 8-3 3 0 6-1 8-2 4-1 11-2 16-3 2-1 6-1 9-2s5-1 7-1c2 0 5 0 6-1 2 0 13-2 15-2 0 0 2 0 4 0 2 0 5-1 6-1 2 0 7 0 12-1 5 0 11-1 14-1 5 0 34 0 34 1l0 0z m-366 137c7 0 16 3 21 5 2 2 5 5 7 7 2 3 4 9 5 16 3 10 4 16 5 32 1 5 1 11 2 12 0 2 0 5 0 8 0 4 0 5-3 9-2 5-3 7-8 11-5 5-10 8-16 11-5 2-7 2-12 3-2 0-6 0-7 1-3 0-2 0-9 0-10 0-14-2-19-7-4-5-5-8-3-26 1-12 1-17 0-22-1-4-4-16-5-18 0-2 0-4 0-5 0-3-1-3 9-15 3-4 4-7 5-9 0-6 4-10 10-12 3-1 9-2 12-2 1 1 4 1 6 1l0 0z m13 20c0 0-2 1-3 2-1 2-2 3-2 5 0 5 2 8 7 8 3 0 4 1 4 1 0 1 0 2-1 3-1 3-1 4 0 5 2 2 5 0 6-4 2-4 3-10 2-13-3-5-7-8-13-7l0 0z m33 143c4 1 12 7 15 10 6 6 10 13 10 19 0 5-3 18-4 20-3 4-9 4-17 2-6-2-8-3-11-6-7-6-10-14-9-23 0-2 0-4 0-5 0 0 1-3 1-5 2-6 3-8 9-12 2-2 3-2 6 0l0 0z m3 21c-3 1-5 5-3 8 0 1 2 3 4 5 3 3 4 5 4 6 1 3 3 5 5 5 2 0 2-1 3-3 2-3 3-9 2-13 0-3-1-5-7-7-5-2-5-2-8-1l0 0z" horiz-adv-x="1000" />

<glyph glyph-name="location" unicode="&#xe81d;" d="M499 189c-90 0-163 73-163 163 0 89 73 163 163 163s163-74 163-163c0-90-73-163-163-163z m0 259c-53 0-97-43-97-96 0-53 44-97 97-97 53 0 96 44 96 97 0 53-43 96-96 96z m465-63h-66c-17 196-170 349-366 366v66c0 17-17 33-33 33-17 0-33-16-33-33v-66c-197-17-350-170-366-366h-67c-16 0-33-17-33-33 0-17 17-34 33-34h67c16-196 173-349 366-365v-67c0-17 16-33 33-33 16 0 33 16 33 33v67c196 16 349 173 366 365h66c17 0 34 17 34 34 0 16-17 33-34 33z m-465-369c-186 0-336 150-336 336 0 186 150 336 336 336s336-150 336-336c0-186-150-336-336-336z" horiz-adv-x="1000" />

<glyph glyph-name="warranty" unicode="&#xe81e;" d="M934 677l-11 54-58-2c-27 0-129 17-227 60-36 16-138 60-138 60s-103-45-141-60c-98-39-197-60-224-60l-57 2-11-54c-2-15-28-154 9-316 34-161 130-375 400-495l25-12 26 10c270 118 368 334 400 495 32 169 9 303 7 318z m-221-239l-248-246-9 8-151 152 83 84 79-80 173 174 84-84-11-8z" horiz-adv-x="1000" />

<glyph glyph-name="filters" unicode="&#xe81f;" d="M964 381h-337c-13 60-67 105-131 105-64 0-118-45-131-105h-329c-16 0-30-13-30-30 0-16 13-29 30-29h329c13-61 67-106 131-106 64 0 118 45 131 106h337c17 0 30 13 30 29 0 16-15 30-30 30z m-468-105c-41 0-76 34-76 75 0 42 35 76 76 76 41 0 76-34 76-76 0-41-35-75-76-75z m-354 282c64 0 119 45 132 105h689c16 0 29 13 29 30 0 16-13 29-29 29h-689c-13 61-68 106-132 106-74 0-134-62-134-135 0-73 60-135 134-135z m0 211c42 0 76-35 76-76 0-41-34-76-76-76-41 0-75 35-75 76 0 41 34 76 75 76z m716-627c-64 0-117-45-132-104h-690c-16 0-30-13-30-30 0-16 13-29 30-29h690c13-61 68-107 132-107 74 0 134 61 134 135s-61 135-134 135z m0-209c-42 0-76 34-76 75s34 76 76 76c41 0 75-34 75-76s-34-75-75-75z" horiz-adv-x="1000" />

<glyph glyph-name="pension" unicode="&#xe820;" d="M13-71h567v363h-95v39h95v440h-567z m878 548c18-10 35-7 50 8 22 19 23 40 1 61l-95 121 28 64s-159-64-257-105v-293l181 192 92-48z m-22-324v-61h-30v61h-116l55-224h152l55 224z m-204 162c-23 0-41-18-41-41v-278h27v278c0 8 6 14 14 14 7 0 14-6 14-14v-101h27v101c0 23-19 41-41 41z" horiz-adv-x="1000" />

<glyph glyph-name="graph" unicode="&#xe821;" d="M849 33h-666v233l74 30c18-23 47-38 78-38 24 0 47 9 64 23l67-45c-3-10-5-20-5-31 0-55 45-100 100-100s100 45 100 100c0 24-9 47-23 64l102 152c10-3 20-5 30-5 55 0 100 45 100 100s-45 100-100 100-100-45-100-100c0-24 9-47 23-64l-101-151c-10 3-20 5-30 5-24 0-47-9-64-23l-68 45c3 10 5 20 5 31 0 55-45 100-100 100s-100-45-100-100c0-4 0-7 1-11l-53-22v373c0 18-14 32-32 32s-32-14-32-32v-699c0-18 14-32 32-32h699c18 0 32 14 32 32s-15 33-33 33z m-78 527c24 0 44-20 44-44s-20-44-44-44-44 20-44 44 19 44 44 44z m-210-310c24 0 44-20 44-44 0-24-20-44-44-44-24 0-44 20-44 44 0 24 20 44 44 44z m-226 153c24 0 44-20 44-44 0-24-20-44-44-44s-44 20-44 44c0 24 20 44 44 44z" horiz-adv-x="1000" />

<glyph glyph-name="price-tag" unicode="&#xe822;" d="M863 800l-329-7a30 30 0 0 1-21-9l-448-448c-19-19-19-51 0-71l350-350c19-20 52-20 71 0l448 448a30 30 0 0 1 9 21l7 329a30 30 0 0 1 0 1c0 20-4 44-22 63-19 19-43 23-64 23a30 30 0 0 1-1 0z m1-60c0 0 0 0 1 0 9 0 19-4 20-5 1-1 5-10 5-20 0-1 0-1 0-1l-7-316-433-434-336 336 433 433 317 7z m-94-40c-20 0-41-8-57-23-31-31-31-83 0-114 31-31 83-31 114 0 31 31 31 83 0 114-16 15-36 23-57 23z m0-60c5 0 10-2 14-6 8-8 8-20 0-28-8-8-20-8-28 0-8 8-8 20 0 28 4 4 9 6 14 6z m-240-100c-78 0-144-50-169-120l-21 0a30 30 0 0 1-3 0 30 30 0 1 1 3-60l10 0c0-3 0-7 1-10l-11 0a30 30 0 0 1-3 0 30 30 0 1 1 3-60l24 0c28-65 92-110 166-110 58 0 99 27 131 59a30 30 0 1 1-42 42c-28-27-48-41-89-41-40 0-76 20-97 50l107 0a30 30 0 1 1 0 60l-129 0c-1 3-1 7-1 10l130 0a30 30 0 1 1 0 60l-114 0c21 36 60 60 104 60 41 0 61-13 89-41a30 30 0 1 1 42 42c-32 33-73 59-131 59z" horiz-adv-x="1000" />

<glyph glyph-name="stages" unicode="&#xe823;" d="M681 244c-1-4-2-6-2-6-1-3-2-7-2-12l-155 0c-3 5-7 11-11 18 2 0 2 1 4 1 2 0 2 0 3 0s2 3 4 3c1 0 2-3 3-3 2 0 2 3 4 3 2 0 2-1 3-1 2 0 2-6 4-6 2 0 2 0 3 0 2 0 2 3 4 3s2 4 3 4 2-7 4-7c2 0 2 6 3 6 2 0 2-6 4-6 2 0 2-1 3-1 2 0 2 1 4 1 2 0 2 1 3 1 2 0 2 2 4 2s2-3 3-3c2 0 2 6 4 6 2 0 2 0 3 0 2 0 2 1 4 1 2 0 2-6 3-6 2 0 2 0 4 0 2 0 2 2 3 2 2 0 2 2 4 2 2 0 2-6 3-6 2 0 2 2 4 2 2 0 2 4 3 4s2-6 4-6c2 0 2 4 3 4 2 0 2-4 4-4 2 0 2 4 3 4 2 0 2 2 4 2s2-2 3-2c2 0 2 3 4 3 2 0 2-4 3-4s2-1 4-1c2 0 2-2 3-2 2 0 2 2 4 2 2 1 2 1 3 1 2 0 2 0 4 0 2 0 2 1 3 1s2-1 4-1c2 0 2-2 3-2 2 0 2 6 4 6 2 0 2 1 3 1 2 0 2-2 4-2 2 0 2 0 3 0 1 0 2-1 2-2z m-329 1c0-2-1-4-2-4-2 0-2 0-3 0-2 0-2 0-3 0-4-1-9-2-13-2h0c-3 0-6 0-8 1 0 0-1 0-1 0-2 0-2 0-3 0-2 0-2 3-4 3-2 0-2-2-3-2-2 0-2 0-4 0-2 0-2 5-4 5-1 0-1-1-3-1-2 0-2-3-3-3-2 0-2-1-4-1-2 0-2 2-3 2-2 0-2 4-4 3-2 0-2-3-3-3s-2 3-4 3c-2 0-2-2-4-2-1 0-1-5-3-5-2 0-2 1-3 1-2 0-2 6-4 6-2 0-2-7-3-7-2 0-2 7-4 7s-2-1-4-1c-1 0-1 1-3 1-1 0-1 0-2 0 0 0-1 0-2 0 0 0-1 0-2 0 0 0 0 0-1 0-2 0-2-2-3-2-2 0-2-1-4-1-2 0-2-3-3-3-2 0-2-1-4-1s-2 1-3 1c-2 0-2 0-3 1v-15l127 0c1 6 2 12 4 18-1 1-1 1-1 2-1-1-2-1-3-1z m471-4c-2 0-2 0-3 0-2 0-2 5-4 5-2 0-2 2-3 2-2 0-2-4-4-4-2 0-2-2-3-2s-2 3-4 3c-2 0-2 0-3 0-2 0-2-4-4-4s-2 2-3 2c-2 0-2 4-4 4-2 0-2 0-3 0-2 0-2-4-4-4s-2 5-3 5c-2 0-2-3-4-3-2 0-2-1-3-1s-2 2-4 2c-2 0-2 1-4 1-1 0-1 1-3 1-2 0-2-6-3-6-2 0-2 2-4 2s-2 2-4 2c-1 0-1-4-3-4-2 0-2 2-3 2-3-6-5-13-7-18l98 0c-1 5-3 11-3 14-2 1-4 3-6 5 0-2-1-4-2-4z m177-5c0 1-1 3-5 4-1 1-11-1-11 0 0 0 7 1 7 1 0 1-3 1-4 1 0 0 1 1 0 1-1 1-2 1-3 1-1 0-1-1-3-1-1 0-1 4-3 4-2 0-2 2-4 2-1 0-1-7-3-7-2 0-2 2-4 2-1 0-1 0-3 0-2 0-2-1-4-1s-2 5-3 5c-2 0-2 0-4 0s-2-3-3-3c-2 0-2 1-4 1-2 0-2 2-3 2-2 0-2-3-4-3-2 0-2 4-3 4-2 0-2-2-4-2-2 0-2-4-3-4-2 0-2 5-4 5-2 0-2-1-3-1-2 0-2-3-4-3-2 0-2 5-4 5s-1-3-3-3c-2 0-2-4-3-4s-2 2-4 2-2 3-4 3-1-1-3-1c-2 0-2-3-4-3-1 0-1 2-3 2-2 0-2-1-4-1-1 0-1 2-3 2-1 0-1 0-2 0 1-3 1-8 2-11 1-2 3-5 4-8 1 0 1 0 1-1l109 0c0 0 3 0 3 2 0 0 0 8 0 8z m-555 10c-2 0-2-2-4-2-2 0-2-3-3-3-2 0-2 7-4 7-2 0-2-6-3-6-2 0-2 1-4 1-2 0-2-1-3-1s-2 4-4 4c-2 0-2-4-3-4-1 0-1 0-1 0-1-5-3-11-4-16h48c-4 5-9 13-15 20 0 0 0 0 0 0z m242 403c-2 0-5 0-7 0-1 0-2 0-3-1 0 0 0-1 1-2 1-3 3-6 5-8 2 4 3 8 4 11z m-27-8c0 0 0 0 0 0 1-7 4-13 9-18 5 3 9 8 12 13-3 3-6 8-7 12-6-1-10-5-14-7z m63 5c-4 0-9 1-12 3-6 0-13 0-21 0-2-8-8-20-19-28 6-4 13-7 20-7 18 0 32 14 32 32z m-66-3c0 0 1 0 2 1 1 1 3 2 5 3 4 2 9 4 16 4 10 0 22 0 31 0h1l0 0c3-1 7-2 12-3 4 0 7 0 10 0 2 0 4 0 6 0 1 0 2 1 2 1 0 0 0 0 0 0 0 0 0 1-1 1 0 0-2 1-3 2-3 1-8 2-13 2v0c0 1 0 1-1 1l-1 0 0 1c-3 16-17 28-33 28-19 0-34-15-34-34 0-5 0-7 1-7 0 0 0 0 0 0z m261-225c6-1 32 16 35 25 1 3 0 10-3 19-8-6-27-18-44-24 4-9 8-19 12-20z m-9 27c-2 1-5 2-8 3 0-1 1-3 2-5 2 1 4 1 6 2z m-111 47c-12 5-24 10-33 16 27 18 60 43 63 45 6 3 40 4 44 5 5 1 5 18 10 17 4 0 15-20 18-22 3-2 11 0 16-3 5-3 22-45 22-45s7-20 11-37c0 0-1-1-1-1-6-4-18-12-31-18 0 0 0 0-1 0v0c0 0-10 3-26 8 0 1-1 1-1 1-7 4-17 10-21 9 0 0-1 0-2-1-21 7-46 16-68 26z m99 15c0-6 5-10 10-10 5 0 10 4 10 10s-5 9-10 9c-5 0-10-4-10-9z m-11-303c-7 1-14 19-17 23-4 3-4 27-6 33-2 5-48 69-46 72s12 7 14 12c3 5 1 60 3 66 1 5 18 37 28 51-6 2-12 4-18 6-29 11-61 24-84 37-14-10-26-17-29-17-1 0-3 0-7-1 0 0 0-1 1-2 1-2 2-3 2-5 2-5 2-10 0-14 4-31 4-80-31-81-2 0-5 0-8 0l-3-6c-4-7-11-12-19-12-3 0-6 1-9 3-5 2-9 6-10 11-2 4-2 8-1 11-36 11-68 32-68 53 0 26 24 29 19 36-6 1-12 3-17 5-39 15-67 15-123 11-18-1-33-11-41-16-7-5-44-46-53-59-9-13-19-31-20-42-1-11-2-96-14-116-12-20 36-1 40 25 4 26 0 83 10 104 7 17 12 40 22 53 0-4-6-38-3-56s20-51 20-51-27-23-31-31c-4-8-28-130-28-130h49c0 0-5 16-12 18-8 1-6 12-6 12s17 68 19 76 42 27 42 27-2-33 0-40c1-7 21-33 25-38 4-4 22-55 22-55h40c0 0 0 24-11 27-24 5-44 60-43 70s28 90 28 90 57-29 91-38c35-10 119-2 121-3 2-1-1-16-1-16s-27-72-29-75c-1-3-2-12 0-16 1-4 10-18 12-22s-2-17-2-17h42c0 0-1 17-13 17-12 0-16 23-15 27 0 4 18 52 21 58 3 7 17 42 22 42s80-68 83-72 8-35 10-40c2-5 12-32 12-32h33c0 0-5 26-13 27z m-193 186c1 0 2 0 3 0 7 0 13 3 17 8 10 12 11 36 10 57l-32-65c0 0 1 0 2 0z m-109 54c0-18 29-37 64-47l32 64-34 14c-1 0-1 0-1 1-2 0-4 0-6 0-14 0-25 0-35 1-1-4-4-6-8-9-5-5-12-11-12-24z m59 36c1-1 2-1 4-2l37-15-34-68c-4-9-1-20 8-24 3-1 6-2 8-2 7 0 13 4 16 10l42 85c2 4 2 9 1 14-2 5-6 8-10 10l-39 16c0 9 0 18 1 27-4 4-8 8-10 12-13 16-16 31-17 33-1 8 4 16 11 17 1 0 2 0 3 0 7 0 13-4 14-11l0 0c0 0 0-1 1-1 0-1 0-3 1-5 1-2 2-4 4-7 0 1 0 2 0 4 4 14-1 31-13 34-12 3-30-4-37-25-10-28-12-47-8-79 2-13 9-20 17-23z m44 78c-5 6-8 12-9 17-1 2-2 4-2 5 0 1 0 1-1 1 0 0 0 0 0 1-1 6-7 10-13 8-6-1-10-7-9-13 0-1 3-16 16-33 12-16 35-34 71-40 1 0 1 0 2 0 5 0 10 4 11 9 1 6-3 12-9 13-31 5-47 19-57 32z m-545-508c0-19 15-34 34-34 18 0 33 15 33 34v109c-10-2-43-9-67-9v-100z m85 235c-1-12 8-22 20-22 0-1 1-1 1-1 12 0 21 9 22 21 1 19 1 36 1 52 0 82-13 127-31 154-8 14-19 23-29 27-9 5-17 6-22 6 0 0 0 0-1 0h-36c-2-30-9-67-16-67-8 0-15 37-17 67h-36c0 0 0 0-1 0-4 0-13-1-22-6-15-7-30-23-41-51-11-28-19-69-19-130 0-16 1-33 2-52 0-12 10-21 21-21 1 0 1 0 2 1 12 0 21 11 20 22-1 19-2 35-2 50 0 66 10 103 19 122v-293c4-1 13-2 24-4 13-2 30-5 43-5v140h13v-140c14 0 30 3 44 5 10 2 19 3 23 4v293c2-4 3-7 5-12 8-21 14-56 14-110 0-15 0-31-1-50z m-165-235c0-19 15-34 34-34 18 0 33 15 33 34v100c-24 0-56 7-67 9v-109z m867 205l0 0c0 0 3 8 3 18 0 8-2 19-9 28l-2-2c6-8 8-18 8-26 0-10-2-17-2-17l2-1z m-5 52c0 3-3 6-6 6s-6-3-6-6c0-4 3-7 6-7s6 3 6 7z m16-15l-2-1c1-4 1-7 1-11 0-7-2-13-4-17-2-4-3-6-3-6l2-2c0 0 8 10 8 25 0 4-1 8-2 12z m-5 1c3 0 6 1 7 4 0 3-2 6-4 7-3 0-6-2-7-5 0-2 2-5 4-6z m-11-38c0 0 0 0 0 0 0 2 0 20-12 28l-2-2c11-7 11-24 11-26 0 0 0 0 0 0l3 0z m-16 26c2 0 3 3 3 6-1 2-4 4-7 3-2-1-3-4-3-6 1-3 4-4 7-3z m-780 323c-5 0-10 0-14 0-2 0-4 0-6-1 1-1 1-2 2-4 2-5 6-12 10-15 3 7 6 14 8 20z m-51-14c0 0-1 0-2-1 3-13 9-25 18-34 11 6 18 15 24 25-7 5-12 15-14 23-12-3-20-9-26-13z m59-52c6 0 11 1 17 2 25 8 44 31 44 58-9 2-17 3-23 6-12 0-26 0-40 0-5-15-15-38-37-53 7-5 14-9 22-11 5-1 11-2 17-2z m-66 55c0 0 0 0 0 0 0 0 2 0 4 2 3 1 6 3 9 6 8 4 18 8 31 8 20 0 43 0 60 0h1l0 0c6-2 14-4 24-6 6 0 12-1 17-1 5 0 9 0 12 1 2 1 4 1 4 2 0 0 0 0 0 0 0 0 0 1-1 1-1 1-4 2-7 3-6 3-14 5-24 6l1 3-1-3c0 0-1 0-1 0l-2 0-1 2c-5 31-31 54-63 54-36 0-65-29-65-65 0-8 1-13 2-13l0 0z" horiz-adv-x="1000" />

<glyph glyph-name="rural" unicode="&#xe824;" d="M13 255l7-21 274 103v-6l-231-87v-172h-63v-12h897v12h-101c-7 12-11 24-14 37 1 54 1 100 0 140 19 19 59 55 97 80 13-14 31-22 52-22 38 0 69 31 69 69 0 26-14 48-34 60 3 6 4 13 4 20 0 26-21 47-47 47 0 0-1 0-1 0-4 14-15 26-28 31-2 30-26 54-55 58-7 27-31 48-61 48-30 0-54-21-61-49-21-2-39-16-48-35-6 3-13 4-20 4-34 0-62-28-62-62 0-6 1-12 2-17-21-10-35-31-35-56 0 0 0-1 0-1-29-4-50-29-50-59 0-8 1-15 4-22l82-31c7 3 13 8 18 13 10-13 26-22 43-22 10 0 20 3 28 8 34-23 60-51 70-62 1-41 1-90-1-147-3-11-7-21-13-30h-90v184l-351 131v-20-6l-281-106z m137-45h96v-12h-96v12z m84-21v-111h-72v111h72z m567 162c3-2 7-5 11-7-11-11-22-25-33-44 0 13-2 26-3 37 9 4 18 8 25 14z m-8-66c13 24 27 41 39 53 3 0 5 0 8 0 9 0 18 2 26 5-11-7-22-15-33-24-15-12-29-24-40-34z m-96 42c3 4 5 7 6 12 12-6 25-9 39-9 0 0 1 0 1 1 2-14 3-29 4-45-13 12-30 27-50 41z m-172-138h72v-51h-72v51z m-93 0h75v-51h-75v51z m-18-51h-75v51h75v-51z m-167 273l8 20 444-166-8-21-444 167z m128-257l16 19 1-1-16-19-1 1z m-10 2l16 19 1-1-16-19-1 1z m29 25l-1 1-33-38 1-1 33 38z m73-27l16 19 1-1-16-19-1 1z m7 20l-1 1-17-19 2-1 16 19z m-22-30l1-1 33 38-1 1-33-38z m107 10l16 19 1-1-16-19-1 1z m-11 2l17 19 1-1-17-19-1 1z m-4-12l33 38 1-1-33-37-1 0z m-373 3h6v-27h-6v27z m504-30l-3-2c12-15 5-37 5-37l3-1c0 1 7 24-5 40z m-5 10c3 0 5-2 5-5 0-3-2-6-5-6s-5 3-5 6c0 3 2 5 5 5z m17-19c4-18-5-29-5-29l2-2c0 0 10 12 6 32l-3-1z m-6 8c1 2 3 4 6 3 2 0 4-3 3-5 0-3-2-4-5-4s-4 3-4 6z m-16-15l-2-2c9-6 9-22 9-22l3 0c0 1 0 17-10 24z m-7 6c2 1 5 0 5-2s0-5-2-6-5 1-5 3c-1 2 0 4 2 5z" horiz-adv-x="1000" />

<glyph glyph-name="vacances" unicode="&#xe825;" d="M733 352c-2-1-4-2-5-2-1 1-2 3-2 4 2-1 5-2 7-2z m-20-219c-7 1-13 18-16 21-3 2-4 25-6 30s-43 62-41 65 10 7 13 11c3 4 0 55 2 60 1 4 16 33 26 46-5 1-11 3-16 5-27 10-56 22-77 34-13-9-23-16-26-16-1 0-3 0-6 0 0-1 0-2 0-2 1-2 2-3 3-5 1-4 1-9 0-13 3-27 3-72-28-73-3 0-5 0-8 0l-3-5c-3-7-9-11-17-11-2 0-5 1-8 2-4 2-8 6-9 11-1 3-2 6-1 10-18 5-35 13-47 23-9-8-22-13-35-13-31 0-57 25-57 54 0 12 5 23 11 32-12 0-26 0-43-1-16-1-30-10-37-15s-40-41-48-53c-8-12-17-29-18-38-1-10-2-87-13-105-10-18 33-2 36 22s1 75 9 94c7 15 11 36 21 48-1-3-6-34-3-50 2-16 18-46 18-46s-25-21-28-28c-4-7-26-118-26-118h45c0 0-4 15-11 16s-5 11-5 11 15 62 17 69c2 7 38 24 38 24s-2-30-1-36 20-30 23-34c4-4 20-50 20-50h37c0 0-1 22-10 24-22 5-40 55-39 64 1 8 25 81 25 81s51-26 83-35c31-8 107-1 109-2 2-1-1-15-1-15s-25-64-26-67c-1-3-2-11-1-15s10-16 12-20c2-4-3-15-3-15h39c0 0-1 15-12 15s-14 21-14 24c1 4 16 48 19 54 3 5 16 37 20 37 5 0 73-62 76-65 2-3 7-32 8-36 2-5 11-29 11-29h30c0 0-4 23-11 24z m-81 261c-10 4-21 9-29 14 24 17 54 39 57 41 6 3 36 4 40 5 4 1 4 16 8 15s14-18 17-20c2-2 10 0 14-3 5-2 21-41 21-41s5-16 9-32c-1 0-2-1-4-2-5-4-15-11-25-16-2 0-11 3-24 8 0 0-1 0-1 0-6 4-15 9-19 8 0 0-1 0-2-1-19 7-41 15-62 24z m91 13c0-5 4-9 8-9 5 0 9 4 9 9 0 5-4 9-9 9-4 0-8-4-8-9z m18-80c6-1 29 15 32 22 1 3-1 10-3 19-6-4-23-16-40-23 4-8 8-17 11-18z m-203-26c1 0 2 0 3 0 6 1 11 3 15 8 9 11 10 32 9 51l-29-59c0 0 1 0 2 0z m372 86c2 3 3 5 4 8 0 2 1 5 1 7 0 4 0 17 0 30s0 24 0 24c0 5-5 10-10 10s-10-5-10-10c0 0 0-47 0-54 0 0 0-1-1-2 0-2-2-4-5-6-2-1-4-2-7-3v98c0 5-4 10-10 10s-10-5-10-10v-137c-2 0-3 1-5 1-4 2-6 4-7 6-1 1-2 2-2 3 0 1 0 1 0 1 0 4 0 17 0 30 0 12 0 24 0 24 0 5-5 10-10 10s-10-5-10-10h0c0 0 0-47 0-54 0-3 1-6 2-10 3-5 7-10 13-15 5-3 12-5 19-6v-82c0-5 20-5 20 0v121c4 1 8 1 11 3 8 3 13 8 17 13z m-801-63c5-3 12-5 20-6v-65c0-6 21-6 21 0v86c4 0 8 1 11 3 8 3 14 8 18 13 2 3 3 6 4 9 1 2 1 5 1 7 0 7 0 36 0 36 0 5-5 10-10 10-6 0-11-5-11-10 0 0 0-29 0-36 0 0 0-1 0-2-1-2-3-4-6-6-2-2-4-3-7-3v88c0 6-5 11-11 11-5 0-10-5-10-11v-109c-2 0-4 0-5 1-4 2-7 4-8 6-1 1-1 2-2 3 0 1 0 2 0 2 0 3 0 17 0 30 0 13 0 26 0 26 0 5-5 10-10 10-6 0-11-5-11-10 0 0 0-49 0-56 0-4 1-7 3-11 2-5 6-11 13-16z m56-50h28v7h-28v-7z m-61 7h-52v-7h52v7z m590-7h147v7h-147v-7z m207 0h53v7h-53v-7z m-901-87h163v10h-163v-10z m378 0h80v10h-80v-10z m112 0h32v10h-32v-10z m223 0h32v10h-32v-10z m65 0h83v10h-83v-10z m120 10v-10h102v10h-102z m-534 175c0 20 11 37 28 46 7 4 16 6 26 6 6 0 12-1 18-3 0 0 0 0 0 0l-3-1 2-3 11-13 2-2 1 2c2 2 4 4 6 6 7-7 13-16 15-25 1-2 1-4 1-6 5 0 10 0 16 0 10-9 21-11 29-11 1 0 3 0 4 0l6-2-29-58c-18 5-34 13-45 21 4 4 7 8 10 13-10-14-26-22-44-22-30 0-54 23-54 52z m24 5c0-16 13-29 29-29 16 0 29 13 29 29 0 16-13 29-29 29-16 0-29-13-29-29z m88 53l1 3 2-1 2 0 2 0 0-2 1-3 3-1 1 0 1-1 11-12 0-1 0 0 2-4 0-1c1 0 1 0 2 1 1 0 2 0 2 0 3 0 6-1 9-4 3 1 6 3 7 4 0 7 0 14 1 21-4 4-7 8-9 11-11 14-14 28-15 30-1 7 3 14 10 15 1 1 2 1 3 1 6 0 11-5 12-11l0 0c0 0 1 0 1-1 0-1 0-2 1-4 1-2 2-4 3-7 0 1 1 3 1 4 4 13-1 28-12 31-11 2-27-4-34-22-6-20-9-34-9-52l1 1 0 5z m90-49c-1 4-4 8-9 9l-31 14c-2-1-5-3-8-4 7-8 14-20 16-25l1-2-2-1c0 0-3-2-8-3l4-2-30-61c-4-8-1-18 7-22 3-1 5-1 7-1 6 0 12 3 15 9l38 76c2 4 2 9 0 13z m16 23c5 0 9 4 10 9 1 6-3 11-8 12-28 4-43 17-52 29-4 5-7 11-8 15-1 2-2 3-2 5 0 0 0 0 0 1 0 0 0 0 0 0 0 0 0 0 0 0-1 5-7 9-12 8-6-1-10-7-8-12 0-1 3-15 14-30 11-15 31-31 64-36 1-1 2-1 2-1z m-7 152l-7 26c0 0-10 7-27 9s-31-13-31-13l-4-15c6 4 14 6 25 7 17 1 32-6 44-14z m-74-25c2 2 5 4 9 5 0 0 0 0 0 0-3-16 6-32 22-35 15-4 31 6 35 21 1 5 1 9 0 13 13-4 25-9 28-7 1 1 1 3 0 4-1 1-1 1-1 1s-27 36-63 33c-35-3-46-29-48-38 0 0 0-1 0-1-2-8 11 0 18 4z m-53-125l-11 13c0 0 13 4 19 6 7 2 14-5 14-5l4 0 4 4 1 6 2 0 1-5 5-1 11-13 2-5 0 0c-6-2-14-4-19-5-2 2-4 3-7 5 0 0 0 0 0-1-3-2-6-1-8 1-2 2-2 5-1 7-2 1-3 1-4 2-4 1-13-9-13-9z m19 1c1-2 4-2 5 0 1 0 1 0 1 0-2 2-5 3-7 5-1-2 0-4 1-5z m38-2c-8-4-31-7-31-7 26-41 58-24 58-24s-19 36-27 31z" horiz-adv-x="1000" />

<glyph glyph-name="services" unicode="&#xe826;" d="M623 540v43h57v4 51h-123v-47h-57v-55h123v4z m-58 90h108v-39h-50-58v39z m50-86h-108v39h50v0h58v-39z m-168-300c-17 1-30 15-29 32 1 25 2 49 2 70 0 76-9 125-20 155-2 6-4 12-6 16v-126-48l-36 172 13 94c7 0 16-3 26-7 13-7 28-19 41-39 25-38 43-102 43-217 0-23 0-47-2-74-1-16-14-28-30-28-1 0-2 0-2 0z m-106 277h-52-49l-13 89h126l-12-89z m-154-363c18-7 56-19 94-21v-193c0-27-21-48-47-48-26 0-47 21-47 48v214z m112-21c39 2 77 15 94 22v-215c0-27-21-48-47-48-26 0-47 21-47 48v193z m-121 167l-16-17c0-4 0-7 0-11 1-17-12-31-29-32 0 0-1 0-1 0-4 0-8 0-12 2l-17-17-45-45-15 16 44 44 17 17c-2 4-3 7-3 11-2 27-2 51-2 74 0 86 10 144 26 183 16 40 38 62 58 73 10 5 19 7 26 7l13-88h-1l-34-168v38 126c-14-27-27-79-27-171 0-9 0-19 0-28l3 2 15-16z m26 414c0 47 39 86 86 86s86-39 86-86c0-43-31-79-72-85-5-1-9-1-14-1-5 0-9 0-14 1-41 6-72 42-72 85z m-192-548l16-16-6-6-16 15 6 7z m51 2l12-23-12-12-23 12-40 40 23 23 40-40z m180 304c-6 0-12 5-12 12s6 11 12 11c6 0 11-5 11-11s-5-12-11-12z m-37-275c7 0 12-5 12-11 0-6-5-11-12-11s-11 5-11 11c0 6 5 11 11 11z m168-22c-6 0-12 5-12 11 0 6 6 11 12 11 6 0 11-5 11-11 0-6-5-11-11-11z m-37 320c7 0 12-5 12-11s-5-12-12-12-11 5-11 12 5 11 11 11z m402-170c6-41 34-103 34-103v-11h-67-38-67v11c0 0 27 62 33 103 6 41-117 67-117 67l-10 25 26-7h135 38c0 0 74 0 86 0s44 3 86 20c-36-90-144-64-139-105z m-150-132h197v-298h-197v298z m22 250h110v-19h-110v19z m266-114v-47h-58v-54h123v4 43h58v3 51h-123z m58-94h-108v40h108v-40z m7 47h-57v40h107l0-40h-50z m-82-256h123v4 51h-123v-55z m8 47h108v-39h-108v39z m-431-81h123v4 50h-123v-54z m8 47h107v-40h-107v40z m424 496v43h58v4 51h-58v47h-123v-55h58v-39h-58v-55h123v4z m50 90l0-39h-107v39h57 50z m-165 8v39h108v-39h-58-50z m108-94h-108v39h108v-39z" horiz-adv-x="1000" />

<glyph glyph-name="cancel" unicode="&#xe827;" d="M654 349l346-346-154-154-346 346-346-346-154 154 346 346-346 346 154 154 346-346 346 346 154-154z" horiz-adv-x="1000" />

<glyph glyph-name="back-listing" unicode="&#xe828;" d="M954 400l-293 293c-27 27-72 27-99 0-27-27-27-72 0-99l173-174h-640c-39 0-70-31-70-70s31-70 70-70h640l-173-173c-27-27-27-72 0-99 14-14 32-21 50-21s36 7 50 21l292 292c13 13 21 31 21 50 0 19-7 37-21 50z" horiz-adv-x="1000" />

<glyph glyph-name="print" unicode="&#xe829;" d="M66 526q-26 0-22 22 4 10 12 14 2 0 49 17t93 32 58 15l44 0 0 150 380 0 0-150 46 0q12 0 57-15t92-32 49-17q18-8 12-26-4-10-20-10l-850 0z m860-56q20 0 37-19t17-41l0-174q0-22-17-41t-37-19l-100 0 44-250-760 0 44 250-98 0q-20 0-38 19t-18 41l0 174q0 22 18 41t38 19l870 0z m-716-444l560 0-70 324-420 0z" horiz-adv-x="980" />

<glyph glyph-name="share" unicode="&#xe82a;" d="M0-121q0 143 24 256t60 186 95 124 107 76 122 38 114 15 107 2l0 245 371-372-371-371 0 268q-102 0-151-1t-126-10-114-26-86-51-74-83-47-124-31-172z" horiz-adv-x="1000" />

<glyph glyph-name="block" unicode="&#xe82b;" d="M0 349q0 188 134 322t322 134 321-134 133-322-133-321-321-133-322 133-134 321z m115 27q-9-126 63-225l476 476q-99 73-225 63t-215-99-99-215z m143-305q99-73 224-63t215 100 100 215-63 224z" horiz-adv-x="910" />

<glyph glyph-name="coins" unicode="&#xe82c;" d="M787 794c-104 0-209-36-209-105v-117c-34 9-69 13-104 13-104 0-209-36-209-104v-108c-17 2-35 3-52 3-104 0-209-36-209-104v-261c0-69 105-105 209-105 92 0 184 28 205 82 18-2 37-3 56-3 39-1 78 5 115 16 30-45 114-69 198-69 104 0 209 36 209 105v652c0 69-105 105-209 105z m-417-783c-1-5-4-9-7-12-17-18-72-40-150-40-97 0-157 33-157 52v59c49-23 103-35 157-33 24 0 48 2 71 6 23 3 44 9 65 18 7 2 14 6 21 9v-59z m0 130c-1-4-3-8-7-11-13-12-29-21-46-26-17-6-34-10-52-12-17-2-35-3-52-3-97 0-157 34-157 52v60c49-24 103-35 157-34 17 0 35 1 52 4 29 3 57 10 84 20 7 3 14 6 21 10v-60z m-7 120c-13-12-29-21-46-27-17-5-34-9-52-11-17-3-35-4-52-3-97 0-157 33-157 52s60 52 157 52c17 0 35-1 52-4 66-9 105-33 105-48-1-5-3-9-7-11z m215-209c-33-11-69-16-104-16-18 0-35 1-52 4v78c17-2 35-3 52-3 35 0 70 4 104 13v-76z m0 130c-33-11-69-16-104-15-18 0-35 1-52 4v78c17-2 35-3 52-3 35-1 70 4 104 13v-77z m0 131c-33-11-69-16-104-16-20 0-41 2-61 5-22 32-57 54-96 61v46c49-23 103-34 157-33 35 0 70 4 104 13v-76z m0 130c-33-11-69-16-104-15-97 0-157 33-157 52 0 18 60 52 157 52 35 0 71-5 104-16v-73z m366-406c0-19-60-52-157-52-76 0-128 20-148 38-4 3-7 8-8 14v59c16-8 33-15 50-20 35-9 70-13 106-13 54-1 108 10 157 33v-59z m0 130c0-18-60-52-157-52-35 0-71 5-104 16-33 11-52 26-52 36v60c16-9 34-16 52-21 34-8 69-13 104-13 54-1 108 10 157 34v-60z m0 131c0-19-60-52-157-52-35-1-71 4-104 15-33 12-52 26-52 37v59c16-9 34-16 52-20 34-9 69-13 104-13 54-2 108 10 157 33v-59z m0 130c0-18-60-52-157-52-35 0-71 5-104 16-33 11-52 26-52 36v60c16-9 34-16 52-21 34-8 69-13 104-13 54-1 108 10 157 34v-60z m0 131c0-19-60-52-157-52-45-2-90 7-130 26-9 4-16 9-22 16-3 3-4 6-4 10v59c48-23 102-35 156-33 54-2 108 10 157 33v-59z m-157 78c-97 0-156 34-156 52 0 19 59 52 156 52s157-33 157-52c0-18-60-52-157-52z" horiz-adv-x="1000" />

<glyph glyph-name="plus" unicode="&#xe82d;" d="M622-30c0-160-242-160-242 0v257h-261c-159 0-159 243 0 243h261v260c0 160 242 160 242 0v-260h261c157 0 157-243 0-243h-261v-257z" horiz-adv-x="1000" />

<glyph glyph-name="alarm" unicode="&#xe82e;" d="M500 701c-35 0-64-29-64-64 0-14 4-26 11-37-94-23-163-108-163-209v-162h-2c-34 0-62-28-62-62 0-34 28-62 62-62h104c1-59 48-106 107-106s106 47 106 106h119c34 0 62 28 62 62 0 34-28 62-62 62h-2v162c0 101-69 186-163 209 7 11 12 23 12 37 0 35-29 64-65 64l0 0z m0-34c17 0 30-14 30-30 0-17-13-30-29-30 0 0-1 0-1 0h0c0 0-1 0-1 0-16 0-29 13-29 30 0 16 13 30 30 30z m-439-68c-7 0-13-4-16-10-21-47-32-99-32-150 0-52 11-103 32-150 3-9 13-14 22-11 9 4 14 14 11 23-1 0-1 1-1 2-19 43-29 89-29 136 0 47 10 93 29 136 4 8 0 19-9 23-2 1-5 1-7 1l0 0z m878 0c-10 0-17-8-17-18 0-2 1-4 2-6 19-43 28-89 28-136 0-47-9-93-28-136-4-9-1-19 8-23 9-4 19-1 23 8 0 0 0 0 0 1 21 47 32 98 32 150 0 51-11 103-32 150-3 6-9 11-16 10z m-440-27c0 0 1 0 1 0 0 0 1 0 1 0 100 0 180-81 180-181v-180c0-9 8-17 18-17h19c16 0 28-12 28-27 0-16-12-27-28-27h-136-178-122c-16 0-27 11-27 27 0 15 11 27 27 27h19c10 0 18 8 18 17v180c0 100 80 181 180 181z m-328-28c-7 0-13-5-16-11-12-30-18-62-18-94 0-33 6-65 18-95 4-9 14-13 23-10 9 3 13 13 10 22 0 1 0 1-1 2-10 25-16 53-16 81 0 27 6 55 16 81 4 8 0 19-8 23-3 1-5 1-8 1z m657 0c-9 0-17-8-17-18 0-2 1-4 2-6 10-26 16-54 16-81 0-28-6-56-16-81-5-9-1-19 8-23 8-5 19-1 23 8 0 0 0 1 1 1 12 30 18 62 18 95 0 32-6 64-18 94-3 7-9 11-17 11z m-407-439h143c0-40-31-71-71-71-40 0-72 31-72 71z" horiz-adv-x="1000" />

<glyph glyph-name="phone-user" unicode="&#xe82f;" d="M227 831l138-151c19-22 19-57-3-76l-88-82c-28-25-25-44-3-69l318-343c22-25 41-28 66-6l88 81c22 22 57 19 76-3l141-151c19-22 16-53-3-75-227-243-526-7-693 176s-374 497-113 702c22 19 54 19 76-3z" horiz-adv-x="1000" />

<glyph glyph-name="contact-user" unicode="&#xe830;" d="M298 540h406v-84h-406v84z m0-149h406v-84h-406v84z m0-148h406v-84h-406v84z m203 603c-269 0-489-218-489-488 0-62 11-122 34-178 17-42 39-81 67-118l-64-151c-6-14-5-31 5-42 9-10 20-15 32-15 3 0 5 0 7 0l248 43c52-18 105-27 158-27 269 0 489 219 489 489 1 269-218 487-487 487z m0-893c-48 0-95 8-140 25-7 3-14 3-23 2l-183-33 43 104c6 14 5 32-7 44-29 35-53 72-68 114-18 47-28 97-28 147 0 223 182 405 404 405 223 0 405-182 405-405 0-222-181-403-403-403z" horiz-adv-x="1000" />

<glyph glyph-name="lock" unicode="&#xe831;" d="M750 549c0 138-111 251-250 251-139 0-250-113-250-251v-85c-62-9-108-61-108-126v-310c-1-71 56-128 128-128h461c71 0 128 57 128 129v310c0 65-47 116-108 126v84z m-224-504c0-14-11-26-26-26-13 0-25 12-25 26v131c-30 12-52 39-52 73 0 43 35 77 77 77 42 0 77-35 77-77 0-35-22-62-51-73v-131z m-185 421v83c0 89 70 159 158 159 89 0 159-70 159-159v-83h-317z" horiz-adv-x="1000" />

<glyph glyph-name="photo" unicode="&#xe832;" d="M640 299l0 0c-1-77-64-140-140-140-77 0-140 63-140 140 0 78 63 140 140 140 77 0 140-62 140-140z m357 51c0-274-223-497-497-497-274 0-497 223-497 497 0 274 223 497 497 497 274 0 497-223 497-497z m-604 249c0-20 15-35 34-35h146c20 0 36 15 36 35 0 19-15 34-35 34h-147c-19 0-34-15-34-34z m406-143c0 42-32 76-74 76h-450c-42 0-76-34-76-76v-315c0-42 34-74 76-74h450c41 0 74 33 74 74v315z" horiz-adv-x="1000" />

<glyph glyph-name="video" unicode="&#xe833;" d="M499 849c-275 0-498-223-498-498 0-275 223-499 498-499 276 0 499 224 499 499 0 275-223 498-499 498z m217-526l-343-171c-9-5-20-4-29 1-10 5-16 16-16 26v343c0 11 6 21 16 26 9 6 20 7 30 2l342-171c16-8 22-27 14-42-3-6-8-11-14-14h0z" horiz-adv-x="1000" />

<glyph glyph-name="favorite" unicode="&#xe834;" d="M869 310c-19-30-42-57-65-83-115-119-252-205-340-285-88 73-132 96-201 156-66 57-140 117-191 188-50 69-91 191-59 302 26 90 97 162 215 170 145 2 201-96 234-169 34 72 80 159 219 169 75 1 129-27 166-61-86-21-149-99-149-191 0-100 74-183 171-196z m60 229v70h-67v-70h-70v-67h70v-69h67v69h69v67h-69z" horiz-adv-x="1000" />

<glyph glyph-name="euro" unicode="&#xe835;" d="M931 29c-14 24-39 38-68 38-12 0-24-3-35-7l-3-2c-50-29-108-45-167-45 0 0 0 0 0 0-120 0-227 61-289 161h182c45 0 77 31 77 76 0 45-32 77-77 77h-233c-1 16-1 32 0 49h233c45 0 77 32 77 77s-32 77-77 77h-182c62 100 169 160 289 160 59 0 117-15 167-45 11-7 25-10 38-10 28 0 53 15 68 40 22 36 10 83-30 107-73 41-157 63-241 63-206 0-390-126-464-315h-61c-45 0-77-32-77-77s32-77 77-77h29c-1-18-1-36 0-54h-29c-45 0-77-32-77-77 0-45 32-77 77-77h61c73-188 256-313 459-313 0 0 0 0 0 0 87 0 172 23 247 67 34 21 47 63 31 103l-2 4z" horiz-adv-x="1000" />

<glyph glyph-name="website" unicode="&#xe836;" d="M589 168c-7-37-25-70-50-95l-159-159c-37-37-87-56-138-56-58 0-118 24-164 70-87 87-93 222-14 302l159 159c25 25 58 42 95 50 25 5 49-10 54-35 5-24-11-48-35-53-20-5-37-13-50-26l-159-159c-44-44-38-122 14-174 52-52 130-58 174-14l159 159c13 13 21 30 26 50 5 24 29 40 53 35 25-5 40-29 35-54z m61 396c18 17 46 17 64 0 17-18 17-47 0-64l-364-364c-9-9-20-13-32-13-12 0-23 4-32 13-18 18-18 46 0 64l364 364z m286-94l-159-159c-25-25-58-43-95-50-4-1-7-1-10-1-21 0-40 14-44 36-5 24 11 48 35 53 20 4 37 13 50 26l159 159c21 21 31 50 29 81-2 34-17 67-43 93-26 26-59 41-93 43-32 2-60-8-81-29l-159-159c-13-13-22-30-26-50-5-24-29-40-53-35-25 5-40 29-35 53 7 38 25 71 50 96l159 159c39 39 93 59 151 55 56-3 109-28 151-69 41-42 66-95 69-151 4-58-16-112-55-151z" horiz-adv-x="1000" />

<glyph glyph-name="etable2" unicode="&#xe837;" d="M395-72c-1 14 12 23 11 37 0 12-10 17-11 29-1 15 12 23 11 38 0 14-11 21-11 34 0 14 7 20 11 33 4 11 0 33 0 33s-28-5-45-6c-19 0-35 7-54 6-17 0-29-5-46-6-19 0-35 7-54 6-17 0-29-5-46-6-19 0-34 7-54 6-16 0-29-5-46-6-19 0-53 6-53 6s-3-22 0-33c3-12 6-20 6-33 1-13-6-21-6-34 0-12 6-20 6-32 1-13-7-22-6-35 0-12 6-19 6-31 1-13-3-23-6-36-3-11 0-33 0-33s34 9 53 9c17-1 29-9 46-9 20-1 35 9 54 9 17-1 29-9 46-9 20-1 35 10 54 9 17-1 29-9 46-9 18-1 30 9 48 9 19 0 51-9 51-9s4 22 0 33c-4 12-11 18-11 30z m-284 60l-16-17c-7-6-17-6-24 0-6 7-6 17 0 24l16 16c4 3 8 5 12 5 9 1 17-7 17-16 0-5-2-9-5-12z m81-59c-6-7-17-8-24-2 0 0-1 1-2 2l-16 16c-7 7-7 17-1 24 3 3 7 4 11 5 0 0 1 0 1 0 5 0 9-2 12-5l17-17c7-6 8-16 2-23z m6 108c-7-6-17-6-24 0l-25 25c-6 7-6 17 0 24 3 3 7 4 11 5 0 0 1 0 1 0 5 0 9-2 12-5l25-25c6-6 6-17 0-24z m43-50c-7 7-7 17 0 24l16 16c3 3 7 5 12 5 0 0 0 0 0 0h0c9 0 17-7 17-16 0-5-2-9-5-13l-17-16c-6-7-17-6-23 0z m74-75c-6-7-17-8-23-1-1 0-1 0-1 1l-9 8c-6 6-6 17 0 23 3 3 7 5 11 5 0 0 1 0 1 0l0 0c5 0 9-1 12-5l8-8c7-6 8-17 1-23z m10 143c-9 0-17 7-17 16 0 9 8 17 17 17 9 0 17-8 17-17 0-9-8-16-17-16z m652 780h-469c-9 0-16-7-16-16v-938c0-9 7-16 16-16h469c9 0 17 7 17 16v938c0 9-8 16-17 16z m-402-83h335v-196c-30 30-55 59-95 79-14 6-26 8-39 6 0 27-16 48-49 64-7-22-8-43-4-62-27-18-26-50-45-81l-32-54c-10-10-10-26 0-36l6-6c10-10 26-10 36 0l24 24 80 30c9-65-40-120-41-170h-176v402z m179-166c0-7-6-12-13-12-7 0-12 5-12 12 0 7 5 12 11 13h0c1 0 1 0 1 0 7 0 13-6 13-13z m198-680h-419v402h419v-402z" horiz-adv-x="1000" />

<glyph glyph-name="info" unicode="&#xe83a;" d="M500 800c-248 0-450-201-450-450 0-248 202-450 450-450s450 202 450 450c0 249-201 450-450 450z m0-166c44 0 80-35 80-80s-36-80-80-80-80 36-80 80 36 80 80 80z m120-548c0-11-9-16-20-16h-200c-11 0-20 5-20 16v10c0 11 9 24 20 24h20v250h-20c-11 0-20 5-20 16v10c0 11 9 24 20 24h160c11 0 20-13 20-24v-10-266h20c11 0 20-13 20-24v-10z" horiz-adv-x="1000" />

<glyph glyph-name="photo-2" unicode="&#xe83c;" d="M500 450c-83 0-150-68-150-151s68-150 150-150 150 67 150 150-67 151-150 151z m358 180h-147l-45 90c-10 20-31 33-54 33h-224c-23 0-44-13-54-33l-45-90h-147c-65 0-117-52-117-116v-452c0-64 52-117 117-117h717c64 0 117 52 117 117v452c-1 64-53 116-118 116z m-632-172c0-16-13-29-29-29h-42c-16 0-29 13-29 29v42c0 16 13 29 29 29h42c16 0 29-13 29-29v-42z m274-382c-123 0-223 100-223 223s100 223 223 223 223-100 223-223-100-223-223-223z" horiz-adv-x="1000" />

<glyph glyph-name="video-2" unicode="&#xe83d;" d="M800 440l-40-20v160h-720v-460h720v160l40-20 160-100v380z" horiz-adv-x="1000" />

<glyph glyph-name="remorque" unicode="&#xe83e;" d="M59 710h588c33 0 59-26 59-58v-265h-706v265c0 32 26 58 59 58z m809-558h-162c0-33-26-59-59-59h-118c0 73-59 132-132 132-27 0-52-8-73-22-21 14-47 22-74 22-73 0-132-59-132-132h-59c-33 0-59 26-59 59v176h706v-118h265c16 0 29-13 29-29 0-16-13-29-29-29h-44v-45c0-16-14-29-30-29s-29 13-29 29v45z m-544 13c18 19 44 31 73 31 57 0 103-46 103-103 0-57-46-103-103-103-29 0-55 12-73 31-19-19-45-31-74-31-57 0-103 46-103 103 0 57 46 103 103 103 29 0 55-12 74-31z m-74-116c24 0 44 19 44 44s-20 44-44 44-44-20-44-44 20-44 44-44z m147 0c24 0 44 19 44 44s-20 44-44 44-44-20-44-44 20-44 44-44z" horiz-adv-x="1000" />

<glyph glyph-name="tractor" unicode="&#xe83f;" d="M213 290c-45 0-82-37-82-82s37-82 82-82c45 0 82 36 82 82 0 45-37 82-82 82z m0 130c-118 0-213-95-213-212 0-118 95-213 213-213 117 0 213 95 213 213 0 117-96 212-213 212z m0-332c-66 0-120 54-120 120s54 119 120 119c66 0 120-53 120-119s-54-120-120-120z m636 210c-84 0-152-68-152-152 0-83 68-151 152-151 83 0 151 68 151 151 0 84-68 152-151 152z m0-223c-40 0-72 32-72 71s32 72 72 72 71-32 71-72c0-39-32-71-71-71z m-123 209c-32 24-83 55-152 70v19c78-16 134-50 167-77 30 22 67 35 108 35 21 0 42-4 61-11-2 47-8 97-23 103-78 29-180 47-261 54v151c0 21 10 26 12 27 10 2 16 13 13 23-3 10-14 16-24 13-14-4-39-22-39-63v-148c-6 0-12 0-17 1l-44 190c-2 7-8 13-15 14-9 2-226 40-388 7-10-2-17-12-15-22 2-11 12-17 22-15 3 0 5 1 7 1l-30-174c0 0 0 0 0-1h-6c-36 0-43-23-43-23l-22-55 18-9c43 36 98 58 158 58 135 0 244-110 244-244 0-24-3-47-10-68h218c0 2 0 5 0 7 0 54 23 103 61 137z m72 132c5 2 10 0 12-5l16-39c2-5-1-11-6-13-1 0-2 0-3 0-4 0-8 2-9 6l-15 39c-2 5 0 10 5 12z m-45 0c5 2 11 0 13-5l15-39c2-5 0-11-5-13-1 0-3 0-4 0-4 0-7 2-9 6l-15 39c-2 5 1 10 5 12z m-443 56c-15 5-30 8-42 9h-121l28 163h135v-172z m226-146l-68 0c-23 61-72 105-121 130v188h147l42-180v-138h0l0 0z" horiz-adv-x="1000" />

<glyph glyph-name="attelage" unicode="&#xe840;" d="M135 741h-82l21-63h40l21 63z m-7 62h-69l-8-31h85l-8 31z m75-250c17 0 31-14 31-31s-14-31-31-31h-15c-44 0-79 35-79 78v78h-31v-78c0-61 49-110 110-110h15c35 0 63 28 63 63s-28 62-63 62-62-28-62-62h31c0 17 14 31 31 31z m-15-500c8 0 15-7 15-15s-7-16-15-16-16 7-16 16 7 15 16 15z m-43-81c8-5 17-9 27-11v32c-2 1-3 2-5 2l-22-23z m43 206c-78 0-141-63-141-140s63-141 141-141 140 63 140 141-63 140-140 140z m0-250c-61 0-110 49-110 110s49 109 110 109 109-49 109-109-49-110-109-110z m-43 130l-23 23c-5-9-9-18-11-28h33c0 2 1 3 1 5z m58-65v-32c10 2 19 6 28 11l-23 23c-2 0-3-1-5-2z m27 65c0-2 1-3 2-5h32c-2 10-6 19-11 28l-23-23z m-86-36h-33c2-10 6-19 11-28l23 23c0 2-1 3-1 5z m715 453v78h-218v-125h172c25 0 46 21 46 47z m47 203h-625c-20 0-37-13-44-31h714c-7 18-24 31-45 31z m-640-226v-186c11-4 21-8 31-14v270c0-28-12-53-31-70z m347-211c39 38 93 62 153 62 43 0 84-13 118-35 24 21 38 50 38 82v266h-656v-24c19-18 31-42 31-70v16c0 25 21 46 47 46h187c26 0 47-21 47-46v-297h35z m-4 343h282v-109c0-43-35-78-78-78h-204v187z m-437-502v32c-10-2-19-6-27-11l22-23c2 0 3 1 5 2z m172 471c-9 0-16-7-16-15v-297h219v297c0 8-7 15-16 15h-187z m-113-450c-9 5-18 9-28 11v-32c2-1 3-2 5-2l23 23z m-1-86l23-23c5 9 9 18 11 28h-32c-1-2-2-3-2-5z m459-31c17-14 38-23 61-26v64c-6 2-11 4-16 7l-45-45z m16 83h-63c3-23 12-44 25-61l45 45c-3 5-5 10-7 16z m7 47l-45 45c-13-17-22-38-25-61h63c2 6 4 11 7 16z m54 0c17 0 31-14 31-32s-14-31-31-31-32 14-32 31 14 32 32 32z m53-63l45-45c14 17 23 38 26 61h-64c-2-6-4-11-7-16z m-38-29v-64c23 3 44 12 61 26l-45 45c-5-3-10-5-16-7z m-15 248c-104 0-188-84-188-188s84-187 188-187 187 84 187 187-84 188-187 188z m0-344c-86 0-157 70-157 156s71 157 157 157 156-70 156-157-70-156-156-156z m-423 281l55-62h158c7 23 17 44 30 62h-243z m-36-6c-21 24-51 38-82 38h-131c-21 0-38-13-44-32h138c78 0 144-53 165-125h194c0 11 1 21 2 32h-165l-77 87z m535-20c-17 13-38 22-61 25v-63c6-2 11-4 16-7l45 45z m-16-83h64c-3 23-12 44-26 61l-45-45c3-5 5-10 7-16z m-76 45v63c-23-3-44-12-61-25l45-45c5 3 10 5 16 7z" horiz-adv-x="1000" />

<glyph glyph-name="business-advert" unicode="&#xe841;" d="M817 710l-70-38c-9-5-21-2-26 8l0 0c-5 9-2 21 8 26l70 38c9 5 21 2 26-8l0 0c5-9 1-21-8-26z m-106 20l52 62c7 8 6 19-2 26-8 8-21 7-28-2l-52-62c-7-8-6-19 2-26 8-8 21-7 28 2z m52-124l80 10c11 1 19 12 17 23-2 10-11 17-21 16l-80-10c-11-1-19-12-17-23 1-11 11-17 21-16z m-683-133v-476h-4-60v-46c0-41 34-75 75-75h72 675 72c41 0 75 34 75 75v46h-61-4v476c0 38-30 68-68 68h-39-49l19-34c10-19 11-40 4-59h26 14v-452h-236v-5c0-14-12-26-26-26h-130c-14 0-26 12-26 26v5h-65c9 5 17 9 19 10l121 67c20 9 54 24 86 42 21 10 43 21 58 34 52 44 15 77 15 77 18 41-16 61-16 61 12 45-29 54-29 54s2 32-27 39c-25 6-59-15-79-30l-48 52 41 23-9 17c53 19 145 42 231 20 6-10 19-13 29-6 8 6 10 18 5 27l-57 103c18 21 22 51 8 77-14 26-42 38-69 34l-56 104c-5 9-16 14-26 10-11-4-15-17-11-27-27-84-96-149-140-184l-9 17-111-61c-22-12-30-40-18-62l10-18-12-7c-7-4-10-13-6-21l28-50c4-7 13-10 21-6l12 7 8-15c12-22 40-30 62-18l10 6 39-42c-41-16-60-75-60-75-3-11-3-22-2-30 0-2 1-4 1-6 0-3-1-7-2-11-3-12-11-21-22-27l-165-90v360h2 18c-1 8 0 16 2 25 1 5 4 10 6 14-5 17-6 36 0 54h-26-27c-39-3-69-33-69-71z" horiz-adv-x="1000" />

<glyph glyph-name="business-website" unicode="&#xe842;" d="M181 317h-162c-10 0-19-9-19-19v-282c0-10 9-19 19-19h162c11 0 19 9 19 19v282c0 11-9 19-19 19z m-83-303c-4 0-8 3-8 8 0 4 3 8 8 8 5 0 8-3 8-8 0-5-3-8-8-8z m82 33h-160v240h160v-240z m-60 596v2c0 10 8 18 18 18h654c10 0 18-8 18-18v-2-156h40v156 2c0 32-26 58-58 58h-654c-32 0-58-26-58-58v-2-286h40v286z m849-197h-248c-17 0-31-14-31-31v-387c0-17 14-31 31-31h248c17 0 31 14 31 31v387c0 17-14 31-31 31z m-123-430c-4 0-8 3-8 8 0 4 3 8 8 8 4 0 8-3 8-8 0-4-4-8-8-8z m121 41h-247v349h247v-349z m-399 91h-206l-23-66h-79c-11 0-19-9-19-19s8-19 19-19h390v38h-59l-23 66z m-328 150v-124h410v126h-410c0-1 0-2 0-2z m223-37c13 0 24-11 24-24s-11-23-24-23-23 10-23 23 10 24 23 24z" horiz-adv-x="1000" />

<glyph glyph-name="business-forfaits" unicode="&#xe843;" d="M286 408l71-71 42 41a8 8 0 0 0 11 0l57-56v179h-274v-174l82 81a8 8 0 0 0 11 0z m81 66a32 32 0 1 0-31-32 32 32 0 0 0 31 32z m-274-477h254v-68h-94a31 31 0 1 1 0-63h494a31 31 0 0 1 0 63h-93v68h253a43 43 0 0 1 43 43v599a43 43 0 0 1-43 43h-356v49h16a30 30 0 0 1 30 30v42a30 30 0 0 1-30 30h-134a30 30 0 0 1-30-30v-42a30 30 0 0 1 30-30h16v-48h-356a43 43 0 0 1-43-44v-599a43 43 0 0 1 43-43z m376-68h-60v68h60z m122 0h-60v68h60z m0 617h237a24 24 0 1 0 0-48h-237a24 24 0 0 0 0 48z m0-91h237a24 24 0 1 0 0-48h-237a24 24 0 0 0 0 48z m0-91h237a24 24 0 1 0 0-48h-237a24 24 0 0 0 0 48z m0-91h237a24 24 0 1 0 0-48h-237a24 24 0 0 0 0 48z m-443 235a38 38 0 0 0 38 38h287a38 38 0 0 0 38-38v-233a38 38 0 0 0-38-38h-287a38 38 0 0 0-38 38z m24-326h656a24 24 0 1 0 0-48h-656a24 24 0 1 0 0 48z" horiz-adv-x="1000" />

<glyph glyph-name="award" unicode="&#xe845;" d="M776 526c0 151-123 274-276 274s-276-123-276-274c0-114 69-211 168-253-1 0-2 1-3 1l-150-264c0 0 64-40 161 61 0 0-20-138 55-171l64 255c25-97 56-214 56-214s54 30 56 157c0 0 40-65 129-52l-123 241c83 48 139 136 139 239z m-502-1c0 124 101 225 226 225 124 0 225-101 225-225 0-124-101-224-225-224-125 0-226 100-226 224z m402 1c0 96-79 175-176 175s-176-79-176-175 79-175 176-175 176 78 176 175z m-260 42v52l115 38v-220l54 1v-46h-167v46l60-1v151l-62-21z m273-4c-2 12-6 24-11 36l12 5c5-13 9-26 12-39l-13-2z m4-38h13v0c0-14-1-27-4-40l-13 2c3 12 4 25 4 38v0z m-33 107c-7 10-15 20-24 29l9 9c10-10 19-20 26-31l-11-7z m-53 52c-11 7-22 13-34 18l5 12c13-5 25-11 36-19l-7-11z m71-233l13-5c-6-12-12-24-20-35l-10 7c7 11 13 22 17 33z m-285-86c10-7 22-13 33-18l-5-12c-12 6-24 12-35 19l7 11z m244 24l9-9c-10-10-20-18-31-26l-8 11c11 7 21 15 30 24z m-137 328h0v12h0c13 0 27-1 40-3l-3-13c-12 2-24 4-37 4z m74-370l5-11c-12-6-25-10-39-12l-2 13c12 2 24 6 36 10z m-234 71c7-11 15-20 24-29l-9-9c-10 9-19 20-26 31l11 7z m160-98c-13 0-27 1-40 4l3 12c12-2 24-3 37-3h0v-7l0-6h0z m-189 167c2-12 6-24 11-36l-12-5c-5 12-9 25-12 38l13 3z m115 215l-5 12c12 5 25 9 38 11l3-12c-12-3-25-6-36-11z m-63-42l-9 9c10 10 20 18 31 26l7-11c-10-7-20-15-29-24z m-56-136h-13v1c0 13 1 26 4 39l13-2c-3-12-4-25-4-37v-1z m15 74l-12 5c5 12 11 24 18 35l11-7c-7-11-13-22-17-33z" horiz-adv-x="1000" />

<glyph glyph-name="contact" unicode="&#xe846;" d="M500 402c42 0 76 34 76 76 0 42-34 76-76 76-42 0-76-34-76-76 0-42 34-76 76-76z m-329-483h658c14 0 26 12 26 25v811c0 14-12 26-26 26h-658c-3 1-6 1-8 0-11-3-19-15-18-26v-228h76c14 2 27-8 29-22 2-14-8-27-22-29-2 0-5 0-7 0h-76v-253h76c14 0 26-11 26-25 0-15-12-26-26-26h-76v-228c0-13 13-25 26-25z m462 102c-2-1-4-1-6 0h-253c-15-2-27 9-29 23-1 12 6 23 17 27 1 0 2 0 3 0 3 0 6 0 9 0h253c13 2 26-8 28-22 2-14-8-26-22-28z m-336 173c0 83 50 154 122 185-28 23-45 60-45 99 0 70 56 127 126 127 70 0 127-57 127-127 0-39-18-76-46-99 72-31 122-102 122-185 2-14-8-26-22-28-14-2-27 8-28 21-1 3-1 5 0 7 0 85-69 153-153 153-84 0-152-68-152-153 2-14-8-26-22-28-14-2-27 8-29 22 0 2 0 4 0 6z" horiz-adv-x="1000" />

<glyph glyph-name="materiel" unicode="&#xe847;" d="M48 200c-2 0-3 1-5 1-6 2-10 6-11 12-47 165-42 304 16 402 44 75 117 125 216 148 145 35 272 21 368-40 90-58 152-157 179-286 2-9-3-17-10-20-160-67-314-81-458-89 0 0 0 0 0 0-102-6-195-46-284-124-3-2-7-4-11-4z m363 548c-43 0-90-6-139-18-90-21-156-66-195-133-50-84-56-205-19-349 89 71 181 108 283 114 137 8 283 21 433 81-26 115-80 199-160 251-57 35-125 54-203 54z m-279-601c-43 0-78 22-99 62-5 9-1 19 7 24 8 4 19 1 23-8 16-29 40-44 72-43 54 1 137 55 191 170 4 8 14 12 23 8 9-4 12-14 8-23-52-111-141-188-222-190-1 0-2 0-3 0z m590 142c-92 0-200 14-324 43-9 2-15 11-12 20 2 10 11 15 20 13 249-58 430-56 540 4-49 18-101 34-156 47-9 3-15 12-13 21 3 9 12 15 21 13 68-17 133-37 192-62 5-3 9-8 10-14 1-6-2-12-7-16-64-46-154-69-271-69z m-212-271c-1 0-3 0-4 0-120 32-216 91-285 175-6 8-5 19 2 25 7 6 18 4 24-3 60-73 142-126 243-157-9 77-20 168-33 273-2 9 5 18 14 19 10 1 18-5 20-15 14-117 26-216 36-298 1-6-1-11-6-15-3-3-7-4-11-4z m76-11c-8 0-15 6-16 14-17 86-32 187-44 298-1 10 6 18 15 19 10 1 18-6 19-15 12-111 27-210 43-296 2-9-4-18-13-20-1 0-2 0-4 0z m2-123c-5 0-9 1-13 5-25 26-51 52-87 65-157 55-258 122-318 212-5 8-3 18 5 23 8 6 18 4 24-4 55-83 151-147 300-199 44-15 74-46 101-73 6-7 6-18 0-24-4-4-8-5-12-5z m0 0c-9 0-16 6-17 14-2 9 5 18 14 20 18 2 34 10 49 22-19 28-39 52-59 72-7 6-7 17-1 24 7 7 18 7 24 0 25-24 50-54 72-89 5-7 4-15-2-21-22-23-49-38-78-42-1 0-2 0-2 0z m-391 822c-8 0-14 4-17 11-1 5-1 9-1 11 0 49 40 88 89 88 33 0 65-19 79-49 5-9 1-19-7-23-9-4-19-1-23 8-9 18-29 30-49 30-31 0-55-24-55-54 3-9-2-19-11-22-2 0-4 0-5 0z m487-212c-4 0-8 0-12 0-6 0-11 3-14 9-82 145-237 213-461 203-10 0-17 7-18 16 0 9 7 17 16 18 234 11 398-60 488-212 0 0 0 0 1 0 37 0 64 3 80 8 9 3 18-2 21-11 3-9-2-18-11-21-19-7-48-10-90-10z" horiz-adv-x="1000" />

<glyph glyph-name="materiel-black" unicode="&#xe848;" d="M796 415c52-13 102-28 150-46-88-48-221-59-398-31-2 0-3 0-5 0 0 0 0 0 0 0-9 2-18 3-27 5 90 12 184 33 280 72z m-162-475c-13-10-26-17-41-21-25 26-54 53-94 67-139 49-232 107-289 183 7 3 14 8 21 12 68-78 161-133 275-163 1 0 3 0 4 0 4 0 8 1 11 4 5 4 7 9 6 15-9 77-20 168-34 275 12-2 23-4 35-6 11-106 25-202 42-285 0-2 0-3 1-4 0-1 1-2 1-2 0 0 0-1 0-1 1-1 2-1 3-2 0-1 0-1 1-1 20-20 39-44 58-71z m-176 379c13-100 23-187 32-261-95 29-173 78-232 144 36 32 70 75 95 126 16 1 32 2 48 3 19-4 38-8 57-12z m-146 6c-26-48-58-84-89-107-16-12-31-21-46-27-15-6-30-9-42-9-27-1-49 10-65 32 77 64 157 100 242 111z m-44 457c12 0 23-4 32-11-11-2-24-5-36-8-16-3-32-8-47-13 9 19 28 32 51 32z m478-250c-15-3-36-4-62-4-1 0-1 0-1 0-75 125-199 196-372 210 8 2 15 3 23 4 27 4 53 6 77 6 78 0 146-19 203-54 58-37 102-92 132-162z m12-33c7-17 12-36 16-56-128-51-253-68-372-77-20-2-40-3-60-4-1 0-1 0-1 0-102-6-194-43-283-114-37 144-31 265 19 349 28 48 69 84 123 109 222 9 376-59 458-203 3-6 8-9 14-9 4 0 8 0 12 0 31 0 56 2 74 5z" horiz-adv-x="1000" />

<glyph glyph-name="vacances2" unicode="&#xe849;" d="M1288-31c1-2 2-4 4-7 3 1 6 2 8 3-3 2-7 3-12 4z m-23-392c-12 2-23 32-28 37-6 5-7 44-10 53s-76 111-73 116 18 12 23 19c5 8 0 97 3 107 3 7 30 59 46 81-9 3-19 7-28 10-47 17-99 39-136 60-23-16-42-28-46-28-2 0-6 0-11-1 0-1 0-2 0-4 2-2 4-5 5-8 2-7 2-15 0-23 5-48 5-128-50-129-5 0-9 0-14 0l-5-10c-5-12-17-19-30-19-5 0-10 2-14 4-8 4-14 11-17 19-2 6-2 12-1 17-32 10-63 24-83 41-17-14-39-22-64-22-55 0-99 43-99 96 0 22 7 41 19 57-22 0-47-1-76-3-29-2-54-18-66-26-11-8-72-74-86-95-14-21-30-50-32-67-2-18-3-154-22-186-19-32 58-3 64 39s1 134 15 168c12 26 20 63 37 84-1-5-10-61-5-89 4-28 32-82 32-82s-44-37-50-49c-6-13-45-209-45-209h78c0 0-6 26-19 28s-9 20-9 20 28 109 31 122c3 12 68 43 68 43s-4-53-2-64 35-54 41-61c6-7 35-88 35-88h65c0 0-1 38-18 42-38 8-71 97-69 113 1 16 45 144 45 144s91-45 147-61c56-15 190-3 193-4 4-1-2-26-2-26s-43-115-45-121c-2-5-4-19-1-25s16-29 20-36c3-6-4-26-4-26h68c0 0-2 27-21 26s-26 37-25 44c1 6 29 84 34 94 6 10 28 66 36 66 8 0 128-109 133-115 5-5 13-57 16-64 3-8 20-51 20-51h52c0 0-7 40-20 42z m-33 421c2 1 3 2 4 2 6 1 22-7 34-15 0 0 0 0 0 0 24-8 41-13 43-14 19 10 36 21 45 28 4 2 6 4 7 5-7 27-17 57-17 57s-27 68-35 72c-9 5-22 2-26 6-5 3-22 34-30 35s-7-26-14-27c-8-2-61-4-71-9-6-3-59-43-102-72 15-9 33-18 52-26 36-16 76-30 110-42z m66 82c9 0 16-7 16-16 0-9-7-16-16-16-8 0-15 7-15 16 0 9 7 16 15 16z m18-158c10-2 51 25 56 39 1 5-1 18-4 33-11-7-42-29-72-40 6-14 13-31 20-32z m-365-46c1 0 2 0 3 0 2 0 4 0 6 0 11 0 20 5 27 13 15 20 17 58 15 91l-51-104z m664 152c3 5 5 9 7 14 1 5 2 9 2 13 0 6 0 30 0 52s0 43 0 43c0 10-8 18-18 18s-17-8-17-18c0 0 0-83 0-95 0 0 0-2-1-4-2-3-4-7-10-11-3-2-7-4-12-5v174c0 9-8 17-18 17s-17-8-17-17v-243c-4 0-7 1-9 2-7 3-11 7-14 10-1 2-2 4-2 5-1 2-1 3-1 3 0 6 0 30 0 52 0 23 0 43 0 43 0 10-8 18-17 18s-18-8-18-18h0c0 0 0-83 0-95 0-6 1-11 4-18 4-9 11-19 23-26 9-6 20-10 34-12v-145c0-9 35-9 35 0v215c7 1 13 2 19 4 14 6 24 15 30 24z m-1413 35c0 10-8 18-18 18-10 0-18-8-18-18 0 0 0-87 0-100 0-6 1-12 4-18 4-10 11-20 23-28 10-6 22-10 36-12v-115c0-10 37-10 37 0v152c7 1 14 3 20 5 14 6 25 15 31 25 4 5 6 10 7 15 2 4 3 9 3 14 0 12 0 62 0 62 0 10-9 18-19 18-10 0-18-8-18-18 0 0 0-50 0-62 0-1 0-3-1-5-2-4-5-8-10-11-3-2-7-4-13-6v158c0 10-8 18-19 18-10 0-18-8-18-18v-195c-3 1-7 1-9 2-8 3-12 7-14 11-2 2-2 4-3 6 0 1-1 2-1 2 0 7 0 31 0 55 0 23 0 45 0 45z m443-62c0-51 43-93 97-93 32 0 61 16 78 40-5-9-10-16-17-23 19-15 48-29 79-38l51 103-10 5c-2-1-5-1-7-1-15 0-33 4-52 20-10 0-19 0-27 1-1 3-1 6-2 9-5 17-14 33-27 45-3-3-7-7-10-10l-3-4-3 4-20 23-4 5 6 1c0 0 0 1 0 1-10 3-21 5-32 5-17 0-33-4-47-11-30-16-50-47-50-82z m147 9c0-29-23-52-51-52-29 0-52 23-52 52s23 51 52 51c28 0 51-23 51-51z m53 85l1 10 0 4 4 0 4-1 4 0 0-3 1-7 6 0 1-1 1-1 20-22 1-1 0-1 2-7 2-2c1 1 1 1 2 2 2 0 3 1 5 1 4 0 9-3 14-8 6 3 11 5 14 7 0 12 0 25 2 38-7 6-13 13-17 19-19 25-25 49-26 54-3 12 5 24 18 27 1 0 3 0 4 0 11 0 21-7 23-18l0 0c0-1 0-1 0-2 1-2 2-5 3-8 1-3 3-7 5-12 1 3 1 5 2 7 6 22-2 50-22 55s-48-6-59-40c-12-34-17-59-16-91l1 1z m54-249c4-2 8-3 12-3 11 0 21 6 26 16l67 136c4 7 4 15 1 23-2 7-8 13-15 16l-57 24c-3-2-8-4-13-7 12-14 24-35 28-44l3-4-5-2c0 0-5-3-14-5l7-3-53-109c-7-14-1-31 13-38z m31 327c-2 4-3 7-3 9 0 1-1 1-1 2 0 0 0 0 0 0 0 0 0 0 0 0-2 10-11 16-21 14-10-2-17-11-15-21 1-2 6-26 26-53 20-27 56-56 114-65 1 0 2 0 3 0 9 0 17 6 18 15 2 10-5 20-15 21-49 8-75 31-91 51-8 11-12 20-15 27z m90 154l-12 48c0 0-17 12-48 15s-55-24-55-24l-7-26c12 7 26 12 44 13 31 2 58-11 78-26z m-78 19c-62-5-81-51-85-67 0-1 0-2 0-3-3-14 20 0 32 8 4 3 10 6 17 9 0 0 0-1 0-1-7-28 10-56 38-62 28-7 56 11 62 38 2 8 2 15 0 23 23-8 45-16 50-13 3 2 2 5 0 7-1 2-2 3-2 3s-47 63-112 58z m-117-272c-2-4-2-9 1-12 4-4 10-5 15-1 0 0 0 1 1 1 4-3 8-6 11-8 10 1 25 4 35 8l-1 1-3 8-20 23-9 1-1 9-4 1-1-12-7-6-7 0c0 0-13 11-25 8-12-3-35-10-35-10l20-23c0 0 16 18 24 15 1 0 3-2 6-3z m14-11c-3-3-8-2-10 1-3 2-3 5-1 8 3-2 7-5 11-8 0 0 0-1 0-1z m105-58c0 0-33 63-48 56-14-8-55-14-55-14 46-72 103-42 103-42z" horiz-adv-x="1775" />

<glyph glyph-name="menu2" unicode="&#xe84a;" d="M160 680c-33 0-60-27-60-60 0-33 27-60 60-60l680 0c33 0 60 27 60 60 0 33-27 60-60 60z m0-270c-33 0-60-27-60-60 0-33 27-60 60-60l680 0c33 0 60 27 60 60 0 33-27 60-60 60z m0-270c-33 0-60-27-60-60 0-33 27-60 60-60l680 0c33 0 60 27 60 60 0 33-27 60-60 60z" horiz-adv-x="1000" />

<glyph glyph-name="materiel-horse" unicode="&#xe84c;" d="M738 795c-83-41-124-96-126-164-23-2-47-6-70-13 20-56 42-104 74-150 29 67 80 117 162 141-8 10-17 19-29 27 11 50 7 103-11 159z m-226-186c-39-13-75-31-105-48-29-17-57-35-82-53l1-407c0-104 83-187 187-187 51 0 98 21 132 54-33 124-106 216-77 362 34-49 76-80 132-87v90 1c-102 90-151 171-187 275l-1 0z m285-28c-88-22-133-69-158-142 39-47 90-95 163-149l90 90-28 48c-33 54-42 109-67 153z m-51-91c9 0 16-7 16-16s-7-16-16-16-15 7-15 16 7 16 15 16z m-453-6c-122-100-193-229-228-417l-31-162 373 6c-67 37-112 108-113 190l-1 383z m615-132l-121-121 51-51c26-25 67-25 93 0l15 16c26 25 26 67 0 93l-38 63z m-177-45v-65h23l26 26c-18 13-34 26-49 39l0 0z m-31-64v-142c0-52-21-99-55-133 3-11 5-23 7-34 48 40 79 100 79 167 0 47 0 89 0 141-3 0-7 0-10 0-7 0-14 1-21 1l0 0z" horiz-adv-x="1000" />

<glyph glyph-name="etable" unicode="&#xe84d;" d="M739 817c-224-263-226-265-226-265-1-3-3-3-6-3h-417v-662c0-4 4-8 8-8h838c4 0 7 4 7 8v676h12l-216 254z m-527-682h-26v272h26v-272z m51 0h-36v272h36v-272z m50 0h-36v272h36v-272z m50 0h-36v272h36v-272z m41 0h-26v272h26v-272z m525-241h-414v154c56-45 116-69 170-70 17 0 30 13 30 29v264c0 15-12 29-30 29-54-1-114-25-170-70v19c73 55 161 77 191 60 4 13 9 26 14 43 13-6 28-15 50-39-4 0-8 1-12 1-15 0-29-8-37-20 5-7 8-15 8-24v-263c0-9-3-17-8-25 8-11 21-20 37-20 55 1 115 25 170 67v-135h1z m-377 226v12h126v-52l-126 40z m126-55v-50c-39 3-83 21-126 51v38l126-39z m-126 81v13l126 40v-53h-126z m0 28v39c41 30 87 48 126 50v-49l-126-40z m19 202c32 61 76 96 147 119l10-15c-71-12-114-56-157-104z m195-296v52h126v-12l-126-40z m126 24v-38c-43-31-87-48-126-51v50l126 39z m-126 42v53l126-40v-13h-126z m-1 68v49c39-2 84-20 126-50v-39l-126 40z m14 101l17 13c5-8 9-13 14-20-10 2-20 5-29 5-2 1-2 2-2 2z m41-10c-10 16-19 24-28 47 13 8 12 7 26 16 2-8 11-39 20-52-3-5-6-9-10-13-3 1-5 1-8 2z m-35 105c0 0 0 0 0 0 8 3 11 0 11-7-5 0-8 2-11 7z m1-62c1-3 4-9 7-14l-19-13c-4 4-8 8-12 12 8 5 16 10 24 15z m-24 101c-18 19-21 38-13 61 12-20 14-39 13-61z m167-200c-30 23-62 41-94 52 4 4 7 8 11 16-10 12-19 45-22 53-2 10-23 112-57 112-4 22-13 34-19 43-5-10-12-25-10-43-2 0-2 0-3-1l-16 21c-140-45-154-132-167-147 0 0-12-17-38-23v217h414v-300h1z" horiz-adv-x="1000" />

<glyph glyph-name="brosse" unicode="&#xe84e;" d="M359 499c-34 0-62-28-62-63v-60c-41-3-76-8-102-13-14-3-25-7-34-11-5-2-9-5-13-8-3-4-7-10-7-17v0c0-1 0-2 0-3 0-2 0-3 0-5v-78c0-2 0-3 0-4l0 0-31-141c-1-5 0-11 4-14 12-12 27-20 42-20 11 0 22 4 32 11 9-7 17-11 28-11 12-1 23 3 34 10 10-7 19-10 31-10 11-1 22 3 32 10 9-7 18-10 29-10 12-1 23 3 33 10 10-7 20-10 31-10 12-1 21 3 32 10 9-7 21-11 33-10s20 4 29 11c9-7 19-11 31-11 11-1 22 3 32 10 9-7 18-10 30-10 11-1 23 3 33 11 9-7 16-11 28-11 12-1 23 3 34 10 10-7 19-10 30-10 16-1 31 7 43 20 4 3 6 9 4 14l-31 141 0 0c0 1 0 2 0 4v78c0 2 0 4 0 5 0 1 0 2 0 3 0 10-6 17-12 21s-13 7-21 9c-15 5-37 10-63 13-17 3-38 5-60 6v60c0 35-28 63-62 63l-157 0z m0-31l25 0c-3-6-9-17-9-32 0-52 0-104 0-156 0-9-7-16-16-16h-15c-9 0-16 7-16 16v156c2 21 16 31 31 32l0 0z m79 0h30c0 0 1 0 1 0 9 0 15-7 15-16 0-43 0-62 0-71-15 0-30 1-46 1v0c-11 0-21-1-32-1v55c0 18 14 32 32 32l0 0z m0-118c77 0 146-4 196-11 25-3 45-7 58-12 0 0 0 0 1 0-1 0-1 0-1 0-13-4-33-9-58-12-50-7-119-11-196-11-11 0-21 0-32 0v46c11 0 21 0 32 0v0z m-141-5v-36c-39 3-72 8-95 13-8 1-12 3-17 5 5 2 9 4 17 5 22 5 56 10 95 13v0z m-123-134c16-5 37-9 63-13 139-13 264-18 402 0 26 4 47 8 63 13 2 1 3 1 5 2l25-113c-4-3-10-7-13-7-5 0-12 2-20 11-6 6-17 6-23-1-9-9-15-11-20-10-5 0-12 4-20 11-6 6-16 6-22 0-9-10-15-11-20-11-5 0-12 3-21 11-6 6-15 6-21 0-9-9-16-11-21-11s-11 2-20 11c-6 6-16 6-22 0-8-8-15-11-20-11-5-1-11 1-20 11-6 6-16 6-22 0-9-9-15-11-21-11-5 0-11 2-20 11-6 6-16 6-22 0-9-10-15-12-20-11-5 0-12 3-21 11-6 6-15 6-21 0-9-9-15-11-21-11-5 0-11 2-20 11-6 6-16 6-22 0-9-10-15-12-20-11-5 0-12 4-21 11-6 6-16 6-21 0-9-9-15-11-20-11-4 0-9 4-14 7 5 34 21 92 31 111l0 0z m639 249c0 8 7 15 15 15 9 0 16-7 16-15 0-9-7-16-16-16l0 0c-8 0-15 7-15 16 0 0 0 0 0 0z m46-86c0 9 7 16 16 16l0 0c9 0 16-7 16-16v0c0-9-7-16-16-16s-16 7-16 16z m-109 265c-1 0-1 0-2 0-6-1-11-7-11-13 0-29-23-52-51-52-7 1-14-4-14-12-1-6 4-12 11-13 1 0 2-1 2-1 29 0 52-22 52-51-1-7 4-13 12-14 0 0 1 0 1 0 1 0 1 0 2 0 6 1 11 7 10 14 0 29 23 51 52 51 3 0 6 1 8 3 1 0 1 0 1 1 0 0 0 0 0 0 0 0 0 0 1 0 0 0 0 0 0 0 0 0 0 1 0 1 5 5 5 13 0 18-3 2-6 4-10 3-28 0-51 23-51 52 0 7-6 13-13 13 0 0 0 0 0 0l0 0z" horiz-adv-x="1000" />

<glyph glyph-name="jacket" unicode="&#xe84f;" d="M578 803l-156 0c-5 0-9-2-12-6l-66-80-114-30c-5-1-9-5-10-10-77-245-74-488-126-729-2-8 4-16 12-18l78-16c9-1 17 4 19 12 29 126 59 252 96 376-1-17-2-35-4-52-3-29-8-57-13-86l82-17c9-2 14-10 13-18-1-9-9-15-18-13 0 0-1 0-1 0l-82 17c-12-63-24-130-26-220 0-9 7-16 16-16h125l264 1c0 0 57-1 80 0 9 1 15 8 15 16-2 90-14 157-26 219l-81-17c-8-2-17 3-19 11-3 8 2 17 11 19 0 0 1 1 1 1l83 17c-6 29-11 58-14 88-2 16-3 33-4 50 37-124 67-250 96-376 2-8 10-13 19-12l78 16c8 2 14 10 12 18-52 241-49 484-126 729-1 5-5 9-10 10l-114 30-63 77v0l0 0-3 3c-3 4-7 6-12 6v0z m-138-31h118l-61-362-57 362z m-103-89c4-49 14-91 28-128h-64c-8 34-18 70-31 110l67 18z m326 0l66-18c-12-40-22-76-30-110h-65c14 38 25 80 29 128z m93-38c66-226 69-456 117-688l-49-9c-17 75-35 150-54 224 28 15 42 49 32 80-9 29-37 48-67 47-10 33-20 67-31 100 6 66 21 145 52 246l0 0z m-188 0l53-21c-19-83-57-149-93-216l40 237z m-324 0c31-101 46-180 52-246-11-34-21-67-31-100-30 1-58-18-67-47-10-31 4-65 32-80-19-74-37-149-54-224l-48 9c47 232 50 461 116 688l0 0z m185-1l33-218c-33 61-67 120-83 198l50 20z m70-386c0 0 0 0 0 0h0c0 0 1 0 1 0 9 0 16-7 16-16l0 0c0-8-7-15-16-15h0c-9 0-16 7-16 15l0 0c0 8 7 15 15 16l0 0z m0-125c0 0 0 0 0 0h0c0 0 1 0 1 0 9 0 16-7 16-16v0c0-8-7-15-16-15h0c-9 0-16 7-16 15l0 0c0 8 7 15 15 16l0 0z m1-148l55-54h-110l55 54z" horiz-adv-x="1000" />

<glyph glyph-name="marketing" unicode="&#xe850;" d="M967-40l-140 140c-13 13-34 15-50 5-19 20-39 39-58 59 54 57 92 132 104 210 4 22 6 45 6 67 0 0 0 0 0 0 0 0 0 0 0 0 0 0 0 0 0 0s0 1 0 1c0 73-20 146-58 208-37 61-90 112-152 146-66 36-143 53-218 48-77-4-152-30-214-76-29-22-55-46-78-75-24-31-43-64-58-100-31-74-37-157-21-235 18-88 68-171 138-227 38-32 81-56 129-73 45-15 94-22 142-20 82 3 162 31 228 80 17-17 34-35 51-52 4-3 7-7 10-10-10-15-8-36 6-50l139-140c16-15 41-15 57 0l37 37c16 16 16 41 0 57z m-807 278c-17 23-32 47-43 73-11 28-19 56-23 85-4 30-4 60-1 90 5 30 13 58 24 86 11 26 26 50 43 73 18 23 38 44 61 62 23 17 48 31 74 43 28 11 57 19 86 23 29 4 59 4 88 0 30-4 59-12 87-23 26-12 50-26 73-43 23-18 43-39 61-61 17-23 32-48 43-74 12-28 19-57 24-87 2-14 3-29 3-44 0-14-1-29-3-44-5-29-12-58-23-86-12-26-27-51-44-74-3-4-6-8-10-12v333h-111v-419c-4-2-8-4-13-6-23-9-47-16-72-21v326h-111v-327c-27 5-53 12-78 22-2 1-5 2-7 3v182h-111v-100c-6 6-12 13-17 20z m11 161c-11 10-9 27 0 38 5 6 9 11 14 17 33 39 66 79 99 119 6 7 18 9 27 7 23-8 46-16 69-24 2 2 4 3 5 5 24 24 48 49 72 73 1 1 2 2 3 3-5 0-10-1-15-1-15-1-27 13-27 27-1 15 13 27 27 27 27 1 55 2 83 3 15 1 27-12 27-27 0-26 0-52 1-78 0-15-13-27-27-27-15-1-27 13-27 27 0 5 0 9 0 14-17-16-33-33-50-50-15-15-30-31-45-46-7-7-17-10-26-7-23 8-46 15-69 23-1-1-2-3-4-4-33-40-66-79-99-119-10-12-28-9-38 0z" horiz-adv-x="1000" />

<glyph glyph-name="prize" unicode="&#xe851;" d="M401 93c11 0 23 2 33 6l-104-210c-9-18-34-19-44-2l-49 80c-5 8-14 13-24 12l-93-10c-20-2-34 18-25 36l104 212c27-13 57-13 80-13 3 0 6 0 10 0 2-3 3-6 4-9 11-32 27-81 78-98 9-3 19-4 30-4z m505-88l-106 213c-27-13-57-13-79-13-3 0-7 0-11 0-1-3-2-7-3-9-11-32-27-81-78-98-9-3-19-5-29-5-12 0-23 2-33 5l103-209c9-18 34-19 44-2l49 80c5 8 14 13 24 12l93-10c20-2 34 18 26 36z m-406 207c-34 0-76-58-107-48-31 10-32 83-58 102-27 19-96-3-115 24s23 85 13 117c-10 31-79 53-79 87s69 56 79 87c10 32-32 91-13 117 19 27 88 5 115 24 26 19 26 92 58 102 30 10 73-48 107-48 34 0 76 58 107 48 31-10 32-83 58-102 27-19 96 3 115-24 19-27-23-85-13-117 10-31 79-53 79-87s-69-56-79-87c-10-32 32-91 13-117-19-27-88-5-115-24-26-19-26-92-58-102-30-10-73 48-107 48z m0 92c105 0 190 85 190 190s-85 190-190 190-190-85-190-190 85-190 190-190z m109 245l-51 4c-8 1-15 6-18 13l-20 47c-7 18-32 18-40 0l-20-47c-3-7-10-13-18-13l-51-4c-19-2-27-25-12-38l39-33c6-5 9-13 7-21l-12-50c-4-19 16-33 32-23l44 27c7 4 16 4 22 0l44-27c16-10 37 5 32 23l-12 50c-2 8 1 16 7 21l39 33c14 13 7 37-12 38z" horiz-adv-x="1000" />

<glyph glyph-name="noun_home_3024614-m" unicode="&#xe852;" d="M838-24h-265v236c0 40-33 73-73 73-40 0-73-33-73-74v-235h-265v439h29v-410h207v206c0 57 46 103 102 103 57 0 103-46 103-102v-207h206v408h29v-437z m58 351l-396 363-396-363-20 22 416 380 416-380-20-22z" horiz-adv-x="1000" />

<glyph glyph-name="noun_home_354218" unicode="&#xe853;" d="M77 349l47-52 85 76v-418h243v256h120v-257h245v418l85-76 47 52-437 390-435-389z m668-324h-105v256h-260v-257h-102v410l234 209 234-209v-409z" horiz-adv-x="1000" />

<glyph glyph-name="noun_plus_638179" unicode="&#xe854;" d="M340 760c-138 0-250-112-250-250l0-320c0-138 112-250 250-250l320 0c138 0 250 112 250 250l0 320c0 138-112 250-250 250l-320 0z m0-60l320 0c106 0 190-84 190-190l0-320c0-106-84-190-190-190l-320 0c-106 0-190 84-190 190l0 320c0 106 84 190 190 190z m160-100c-17 0-30-13-30-30l0-190-190 0c-17 0-30-13-30-30 0-17 13-30 30-30l190 0 0-190c0-17 13-30 30-30 17 0 30 13 30 30l0 190 190 0c17 0 30 13 30 30 0 17-13 30-30 30l-190 0 0 190c0 17-13 30-30 30z" horiz-adv-x="1000" />

<glyph glyph-name="noun_home_940422" unicode="&#xe855;" d="M943 460l-422 349c-12 10-30 10-42 0l-422-349c-32-27-13-79 29-79h47v-420c0-43 34-78 78-78h166c19 0 33 14 33 33v203c0 19 14 33 33 33h116c19 0 33-14 33-33v-202c0-19 14-33 33-33h167c43 0 78 34 78 78v420h47c40-1 59 51 26 78z" horiz-adv-x="1000" />

<glyph glyph-name="trend-down" unicode="&#xe856;" d="M987 75c0 0-1 0-1 0-1-1-2-2-2-3-1 0-1 0-1 0 0 0-1-1-1-1 0 0 0 0-1-1 0 0 0 0 0 0-1 0-1-1-1-1 0 0-1 0-1 0 0 0 0-1-1-1 0 0 0 0 0 0-1 0-1 0-1-1-1 0-1 0-1 0 0 0-1 0-1-1 0 0 0 0-1 0 0 0 0 0 0 0-1 0-1 0-1-1-1 0-1 0-1 0 0 0-1 0-1 0 0 0 0 0-1-1 0 0 0 0-1 0 0 0 0 0 0 0-1 0-1 0-2 0 0 0 0 0 0 0-1-1-1-1-1-1-1 0-1 0-1 0 0 0-1 0-1 0 0 0-1 0-1 0 0 0-1 0-1 0 0 0-1 0-1 0 0 0 0 0-1 0 0 0-1 0-2 0h-250c-20 0-37 16-37 37s17 38 37 38h160l-305 305-182-182c-15-15-39-15-53 0l-313 313c-14 14-14 38 0 53 15 14 39 14 53 0l286-286 182 181c15 15 38 15 53 0l332-331v159c0 21 17 38 37 38s38-17 38-38v-250c0-1 0-1 0-2 0 0 0 0 0-1 0 0 0 0 0-1 0 0 0 0 0-1 0 0 0 0-1 0 0-1 0-1 0-2 0 0 0 0 0 0 0-1 0-1 0-1 0-1 0-1 0-1 0 0 0-1-1-1 0 0 0-1 0-1 0 0 0-1 0-1 0 0 0 0 0-1 0 0-1 0-1-1 0 0 0 0 0 0 0-1 0-1 0-1 0 0-1-1-1-1 0 0 0 0 0-1 0 0 0 0-1-1 0 0 0 0 0 0 0-1 0-1 0-1-1 0-1-1-1-1 0 0 0 0 0-1-1 0-1 0-1 0 0-1 0-1 0-1-1-1-1-1-1-1 0 0 0 0-1-1 0 0 0 0 0-1z" horiz-adv-x="1000" />

<glyph glyph-name="trend-up" unicode="&#xe857;" d="M987 624c1 0 1-1 1-1 0 0 0 0 0-1 1 0 1 0 1-1 0 0 0 0 1 0 0 0 0-1 0-1 0 0 0 0 1-1 0 0 0 0 0-1 0 0 0 0 0 0 1-1 1-1 1-1 0 0 0-1 0-1 0 0 1 0 1-1 0 0 0 0 0-1 0 0 0 0 0 0 0-1 1-1 1-1 0-1 0-1 0-1 0 0 0-1 0-1 0 0 0-1 0-1 1 0 1 0 1-1 0 0 0 0 0 0 0-1 0-1 0-2 0 0 0 0 0 0 0-1 0-1 0-1 1-1 1-1 1-1 0-1 0-1 0-1 0-1 0-1 0-1 0-1 0-1 0-1 0-1 0-1 0-2v-250c0-21-17-37-38-37s-37 16-37 37v160l-332-332c-15-15-38-15-53 0l-182 182-286-286c-14-15-38-15-53 0-14 14-14 38 0 53l313 312c14 15 38 15 53 0l182-182 305 306h-160c-20 0-37 16-37 37s17 38 37 38h250c1 0 2 0 2 0 1-1 1-1 1-1 0 0 1 0 1 0 0 0 1 0 1 0 0 0 1 0 1 0 0 0 1 0 1 0 0 0 0 0 1 0 0 0 0 0 1 0 0 0 0-1 0-1 1 0 1 0 2 0 0 0 0 0 0 0 1 0 1 0 1 0 1 0 1-1 1-1 0 0 1 0 1 0 0 0 0 0 1 0 0 0 0-1 1-1 0 0 0 0 0 0 1 0 1 0 1 0 0-1 1-1 1-1 0 0 0 0 1 0 0 0 0-1 1-1 0 0 0 0 0 0 1 0 1-1 1-1 0 0 1 0 1 0 0 0 0-1 1-1 0 0 0 0 0 0 1-1 1-1 1-1 0 0 1 0 1-1 0 0 0 0 1 0 0-1 1-2 2-3 0 0 1 0 1 0 0-1 0-1 0-1z" horiz-adv-x="1000" />

<glyph glyph-name="info-1" unicode="&#xe858;" d="M500 842c-271 0-492-221-492-492 0-271 221-492 492-492 271 0 492 221 492 492 0 271-221 492-492 492z m0-895c-222 0-402 181-402 403s180 403 402 403c222 0 403-181 403-403s-181-403-403-403z m0 534c-25 0-45-20-45-45v-379c0-25 20-45 45-45s45 20 45 45v379c0 25-20 45-45 45z m46 116c0-26-20-46-46-46s-46 20-46 46 21 46 46 46 46-21 46-46" horiz-adv-x="1000" />

<glyph glyph-name="invoice" unicode="&#xe859;" d="M872 838c-3 3-8 5-12 5h-720c0 0-1 0-1 0l0 0c-5 0-9-2-12-5-3-4-4-8-4-12v-952c0-4 2-9 5-12 3-3 8-5 12-5h720c4 0 9 2 12 5 3 3 5 8 5 12v952c0 4-2 9-5 12z m-30-946h-684v916h684v-916z m-370 743c-4 5-4 12-1 17 3 6 8 10 14 10v0c1 0 2 0 2 0h216c5 0 10-2 13-5 3-3 5-8 5-13 0-4-2-9-5-12-3-4-8-5-13-5h-216c-6 0-12 3-15 8z m0-147c-4 5-4 12-1 17 3 6 8 9 14 10v0c1 0 2 0 2 0h216c5 0 10-2 13-5 3-4 5-8 5-13 0-5-2-9-5-12-3-4-8-5-13-5h-216c-6-1-12 3-15 8z m244-125c3-4 5-8 5-13 0-5-2-9-5-13-3-3-8-5-13-5h-406c-6 0-12 3-15 9-4 5-4 11-1 17 2 6 8 9 14 10 1 0 1 0 2 0h406c5 0 10-2 13-5z m3-151c3-6 3-12 0-18-4-5-9-9-16-9h-406c-6 0-12 3-16 8-3 6-4 12-1 18 3 6 9 9 15 10 1 0 1 0 2 0h406c7 0 12-4 16-9z m-1-148c3-5 3-12 0-17-3-5-8-9-15-9h-406c-6 0-12 3-15 8-4 6-4 12-1 18 2 5 8 9 14 9 0 0 0 0 0 0 1 0 1 0 2 0h406c7 0 12-3 15-9z m-482 522c-2 5-2 9 1 12 2 4 5 5 9 5 9 0 17 0 25 0 2 0 2 0 3 2 8 22 22 38 44 47 26 10 50 6 72-11 6-5 11-10 16-17 3-4 2-10-2-14-4-4-10-4-14-1-1 1-3 2-3 3-13 16-28 24-48 22-12-1-22-7-31-16-4-4-8-9-11-15 1 0 2 0 3 0 16 0 32 0 49 0 7 0 12-5 12-11 0-7-5-12-12-12-11 0-22 0-32 0-9 0-18 0-26 0 0-5 0-10 0-16 1 0 1 0 2 0 19 0 37 0 56 0 7 0 12-5 12-11 0-7-5-12-12-12-13 0-27 0-40 0-4 0-7 0-11 0 0 0 0 0 0-1 9-16 21-27 40-30 11-1 21 1 31 6 7 4 13 10 18 16 3 5 9 7 14 4 5-2 7-7 6-13 0 0-1-2-1-2-12-17-27-28-46-32-32-6-57 6-76 31-4 6-8 13-10 20-1 1-1 1-3 1-8 0-16 0-25 0-7 1-11 5-12 11 0 7 5 12 12 12 7 0 13 0 20 0 1 0 1 0 2 0 0 6 0 11 0 16-1 0-1 0-2 0-7 0-14 0-20 0-5 0-8 2-10 6z" horiz-adv-x="1000" />

<glyph glyph-name="wallet" unicode="&#xe85a;" d="M966 489v106c0 45-37 81-81 81l-613 0c-45 0-82-36-82-81v-184l-140 0c-26 0-47-21-47-47v-19l0-108v-166c0-26 21-47 47-47h500c26 0 47 21 47 47v32h288c44 0 81 36 81 81v106c18 6 31 23 31 44l0 111c0 21-13 38-31 44l0 0z m-932-125c0 9 7 16 16 16h500c9 0 16-7 16-16v-19h-532v19z m532-50v-46h-532v46h532z m0-243c0-9-7-16-16-16h-500c-9 0-16 7-16 16l0 166h532l0-166z m369 113c0-27-23-50-50-50h-288v231c0 25-21 46-47 46h-328v184c0 27 22 50 50 50h613c27 0 50-23 50-50v-103h-186c-23 0-42-16-46-37-1-3-1-7-1-10v-111c0-26 21-47 47-47h186v-103z m31 150c0-9-7-16-16-16l-201 0c-9 0-16 7-16 16v111c0 9 7 16 16 16h201c9 0 16-7 16-16l0-111z m-123 111h-80c-9 0-16-7-16-15v-80c0-9 7-16 16-16h80c8 0 15 7 15 16v80c0 8-7 15-15 15l0 0z m-16-80h-49v49h49v-49z m-663-168h-63c-12 0-23-11-23-23v-63c0-12 11-23 23-23h63c12 0 23 11 23 23v63c0 12-11 23-23 23z m-8-77h-46v46h46v-46z" horiz-adv-x="1000" />

<glyph glyph-name="sale" unicode="&#xe85b;" d="M998 621c1 5 0 10-3 13 0 1 0 1-1 2-2 2-4 5-7 6-2 1-4 2-6 3-15 6-31 12-47 18-38 15-76 30-114 45-46 18-92 37-137 55-40 15-80 31-119 47-19 7-38 16-57 22-8 3-13 0-20-2-10-4-20-8-30-12-36-14-71-28-107-42-46-19-92-37-137-55-42-16-83-32-124-49-23-8-45-17-68-26 0-1-1-1-2-1-2-1-4-1-6-3-7-4-11-11-11-19v-52-126-151-130c0-22-1-43 0-64v-1c0-7 4-16 11-20 16-6 32-13 47-20 38-17 76-34 114-51 46-20 92-40 137-60 40-18 80-35 119-52 19-9 39-17 58-26 0 0 0 0 1 0 0 0 0 0 0 0 0-1 1-1 1-1 3-2 7-2 10-2 2 0 4 0 6 1 2 0 4 1 5 2 0 0 0 0 0 0 16 7 32 14 48 21 38 16 76 33 114 50 45 20 91 40 137 60 39 18 79 35 119 53 19 8 39 16 57 25 1 0 1 0 1 0 6 3 9 8 11 14 0 2 0 4 0 6v52 126 151 130c0 21 1 42 0 63z m-550 145c13 5 26 10 38 15 5 2 10 4 14 6 14-6 28-11 41-17 38-14 76-29 114-44 46-18 91-37 137-55 40-15 80-31 119-47 3 0 5-1 7-2 0 0-1 0-1 0-38-17-76-34-114-51-17-7-35-15-53-23-14 6-28 12-42 17-38 16-76 32-114 47-46 19-91 38-137 57-40 16-79 32-119 49-2 1-4 1-6 2 38 16 77 31 116 46z m-257-101c27 11 54 21 81 32 14-6 28-12 43-18 38-16 76-31 113-47 46-19 92-38 138-56 40-17 79-33 119-49 3-1 6-3 9-4-9-4-19-8-28-12-40-18-79-35-119-52 0-1-1-1-2-1-15-7-30-13-45-20-12 5-24 10-36 16-38 16-76 33-114 50-46 20-91 40-137 60-40 18-79 35-119 53-3 1-7 3-11 4 0 0 0 1-1 1 37 14 73 28 109 43z m159-685c-46 20-91 40-137 60-40 18-79 35-119 52-16 7-31 15-47 22v37 126 151 130c0 10 0 20 0 31 5-2 9-4 14-6 38-17 76-34 114-51 46-20 92-40 138-61 39-17 79-34 118-52 6-2 11-5 17-7 10-5 20-9 30-13v-38-125-151-131c0-10-1-20-1-31-4 2-9 4-13 6-38 17-76 34-114 51z m567 117c-38-16-76-33-114-50-45-20-91-40-137-60-40-18-79-35-119-53-8-3-16-7-25-10v17 126 151 131c0 16 1 33 1 50 8 4 16 7 25 11 35 16 71 31 107 47 24 11 48 21 72 32v-93-18c0-12 10-23 22-22 12 0 23 10 23 22v128 3c7 3 13 6 20 9 42 18 83 36 124 54 4 2 9 4 13 6 8 3 16 7 24 10v-17-126-151-130c0-17 0-34 0-51-12-5-24-10-36-16z" horiz-adv-x="1000" />

<glyph glyph-name="review" unicode="&#xe85c;" d="M659 2c0-6-2-11-6-15-4-4-9-6-14-6h-32c-7 0-14 4-18 11-4 6-4 14 0 20 4 7 11 11 18 11h32c5 0 10-3 14-6 4-4 6-10 6-15l0 0z m260 33c-21-8-44-12-67-12h-142c-7 0-14-4-18-11-3-6-3-14 0-20 4-7 11-11 18-11h142c28 0 56 5 82 15 7 3 12 9 13 17 1 7-2 14-8 19-5 5-13 6-20 3l0 0z m78 609v-435c0-39-15-75-43-103-27-27-63-42-102-42h-445l-175-148c-4-3-10-5-15-4-5 0-10 2-14 6-3 4-5 9-5 14v132h-50c-38 0-75 15-102 42-27 28-43 64-43 103v435c0 38 16 75 43 102 27 27 64 42 102 42h704c39 0 75-15 102-42 28-27 43-64 43-102l0 0z m-41 0c0 27-11 53-31 73-19 19-45 30-73 30h-704c-27 0-54-11-73-30-20-20-30-46-30-73v-435c0-28 10-54 30-73 19-20 46-31 73-31h70c6 0 11-2 15-6 4-4 6-9 6-14v-108l147 124c4 3 9 4 14 4h452c28 0 54 11 73 31 20 19 30 45 31 73l0 435z m-567-148c-4 4-6 9-7 14 0 5 2 10 5 14 3 4 8 7 13 7l56 9 26 51c3 6 10 10 18 10s15-4 19-10l25-51 56-9c5 0 10-3 13-7 3-4 5-9 5-14-1-5-3-10-6-14l-41-40 9-56 0 0c1-5 0-10-3-14-3-4-7-8-12-9-5-1-10-1-15 2l-50 25-50-25c-5-3-10-3-15-2-5 1-9 4-12 9-3 4-4 9-3 14l9 56-40 40z m58 1l18-19c5-5 7-11 6-18l-4-26 24 12h0c6 3 13 3 19 0l23-12-4 26h0c-1 7 1 13 6 18l19 19-27 4c-6 1-12 5-15 11l-12 23-12-23c-3-6-9-10-15-11l-26-4z m407 20c2-3 2-7 1-11-1-4-3-7-6-10l-40-40 9-56v0c1-5 0-10-3-14-3-4-7-8-12-9-5-1-10-1-15 2l-50 25-51-25c-4-3-9-3-14-2-5 1-10 4-12 9-3 4-4 9-3 14l9 56-41 40 0 0c-3 4-5 9-6 14 0 5 2 10 5 14 3 4 8 6 13 7l56 9 25 51c4 6 11 10 19 10 7 0 14-4 18-10l26-51 56-9c4 0 7-2 10-4 3-3 5-6 6-10l0 0z m-63-20l-26 4c-7 1-12 5-15 11l-12 23-12-23c-3-6-9-10-15-11l-26-4 18-19c5-5 7-11 6-18l-4-26 23 12h0c6 3 13 3 19 0l24-12-4 26h0c-1 7 1 13 6 18l18 19z m-600-41l-40 40v0c-4 4-6 9-6 14-1 5 1 10 4 14 4 4 8 7 13 7l56 9 26 51h0c4 6 11 10 18 10 8 0 15-4 19-10l25-51 56-9c5 0 10-3 13-7 3-4 5-9 5-14 0-5-3-10-6-14l-40-40 9-56 0 0c0-5-1-10-3-14-3-4-8-8-13-9-4-1-10-1-14 2l-51 25-50-25c-4-2-7-3-11-3-4 1-8 2-11 4-3 3-5 6-7 9-1 4-2 8-1 11l9 56z m18 41l19-19h0c4-5 7-11 6-18l-5-26 24 12c6 3 13 3 19 0l23-12-4 26c-1 7 1 13 6 18l19 19-26 4c-7 1-13 5-16 11l-12 23-12-23c-3-6-8-10-15-11l-26-4z m-27-153c-8 0-15-4-18-11-4-6-4-14 0-20 3-7 10-11 18-11h253c8 0 15 4 18 11 4 6 4 14 0 20-3 7-10 11-18 11h-253z m460-75h-460c-8 0-15-4-18-10-4-6-4-14 0-21 3-6 10-10 18-10h460c8 0 14 4 18 10 4 7 4 15 0 21-4 6-10 10-18 10z" horiz-adv-x="1000" />

<glyph glyph-name="profile" unicode="&#xe85d;" d="M997 711c0 39-32 71-72 71l-850 0c-40 0-72-32-72-71v-531c0-40 32-72 72-72h510c8-106 97-190 206-190 113 0 206 92 206 206 0 12-1 24-3 35 2 7 3 14 3 21l0 531z m-922 39h314v-379l-354 0v340c0 21 18 39 40 39l0 0z m716-800c-97 0-175 78-175 174s78 175 175 175 174-79 174-175-78-174-174-174l0 0z m0 381c-109 0-198-84-206-191h-510c-22 0-40 18-40 40l0 159h370c8 0 16 7 16 16v395h504c22 0 40-18 40-39v-476c-37 57-101 96-174 96l0 0z m87-106c-12 0-23-4-31-13l-81-82-32 31c-17 18-45 18-62 0-17-17-17-45 0-62l62-63c9-8 20-13 32-13 11 0 23 5 31 13 24 24 48 48 71 72 14 14 28 28 41 42 18 17 18 45 0 62-8 9-19 13-31 13l0 0z m9-53c-14-14-28-28-42-42-23-23-47-48-71-71-2-3-5-4-8-4-4 0-7 1-9 4l-63 62c-4 5-4 13 0 18 3 2 6 3 9 3 3 0 6-1 9-3l42-43c3-3 7-5 12-5h0c4 0 8 2 11 5l93 94c2 2 5 3 8 3 3 0 6-1 9-3 4-5 4-13 0-18l0 0z m-20 477c0-9-7-16-16-16h-317c-8 0-16 7-16 16 0 9 8 16 16 16h317c9 0 16-7 16-16h0z m0-118c0-9-7-16-16-16h-317c-8 0-16 7-16 16 0 9 8 16 16 16h317c9 0 16-7 16-16h0z m0-118c0-9-7-16-16-16h-317c-8 0-16 7-16 16 0 9 8 16 16 16h317c9 0 16-7 16-16h0z m-553-173c0-9-7-16-16-16l-172 0c-9 0-16 7-16 16s7 16 16 16l172 0c9 0 16-8 16-16z m-235 171h266c9 0 16 7 16 16 0 62-39 116-94 138 17 15 28 38 28 62 0 46-37 84-83 84-46 0-83-38-83-84 0-24 10-47 27-62-54-22-93-76-93-138 0-9 7-16 16-16h0z m133 268c28 0 51-23 51-52 0-28-23-51-51-51-28 0-51 23-51 51 0 29 23 52 51 52z m0-135c59 0 108-44 116-101h-232c8 57 57 101 116 101l0 0z" horiz-adv-x="1000" />

<glyph glyph-name="twitter" unicode="&#xf099;" d="M904 622q-37-54-90-93 0-8 0-23 0-73-21-145t-64-139-103-117-144-82-181-30q-151 0-276 81 19-2 43-2 126 0 224 77-59 1-105 36t-64 89q19-3 34-3 24 0 48 6-63 13-104 62t-41 115v2q38-21 82-23-37 25-59 64t-22 86q0 49 25 91 68-83 164-133t208-55q-5 21-5 41 0 75 53 127t127 53q79 0 132-57 61 12 115 44-21-64-80-100 52 6 104 28z" horiz-adv-x="928.6" />

<glyph glyph-name="facebook" unicode="&#xf09a;" d="M535 843v-147h-87q-48 0-65-20t-17-60v-106h164l-22-165h-142v-424h-171v424h-142v165h142v122q0 104 58 161t155 57q82 0 127-7z" horiz-adv-x="571.4" />

<glyph glyph-name="youtube" unicode="&#xf167;" d="M542 156v-118q0-37-22-37-13 0-25 12v168q12 12 25 12 22 0 22-37z m189-1v-25h-51v25q0 38 25 38t26-38z m-540 122h60v52h-174v-52h59v-318h55v318z m161-318h50v276h-50v-211q-17-23-32-23-10 0-11 11-1 2-1 20v203h-50v-218q0-28 5-41 7-21 32-21 27 0 57 34v-30z m240 83v110q0 41-5 55-10 31-40 31-28 0-52-30v121h-50v-370h50v27q25-31 52-31 30 0 40 31 5 15 5 56z m188 6v7h-51q0-29-1-34-4-20-22-20-26 0-26 38v49h100v57q0 44-15 65-22 28-59 28-38 0-60-28-15-21-15-65v-96q0-44 16-65 22-29 60-29 40 0 60 30 10 15 12 30 1 5 1 33z m-339 509v117q0 39-24 39t-24-39v-117q0-39 24-39t24 39z m401-419q0-131-14-195-8-33-33-56t-57-25q-102-12-309-12t-310 12q-32 3-57 25t-32 56q-15 62-15 195 0 131 15 195 7 33 32 56t57 26q103 11 310 11t309-11q33-4 58-26t32-56q14-62 14-195z m-557 712h57l-67-223v-151h-56v151q-8 42-34 119-21 57-37 104h60l39-147z m207-186v-97q0-46-16-66-21-29-59-29-37 0-59 29-15 21-15 66v97q0 45 15 66 22 28 59 28 38 0 59-28 16-21 16-66z m187 91v-279h-51v31q-30-35-58-35-25 0-33 21-4 13-4 42v220h51v-205q0-19 0-20 2-12 12-12 15 0 32 24v213h51z" horiz-adv-x="857.1" />

<glyph glyph-name="instagram" unicode="&#xf16d;" d="M571 350q0 59-41 101t-101 42-101-42-42-101 42-101 101-42 101 42 41 101z m77 0q0-91-64-156t-155-64-156 64-64 156 64 156 156 64 155-64 64-156z m61 229q0-21-15-36t-37-15-36 15-15 36 15 36 36 15 37-15 15-36z m-280 123q-4 0-43 0t-59 0-54-2-57-5-40-11q-28-11-49-32t-33-49q-6-16-10-40t-6-58-1-53 0-59 0-43 0-43 0-59 1-53 6-58 10-40q12-28 33-49t49-32q16-6 40-11t57-5 54-2 59 0 43 0 42 0 59 0 54 2 58 5 39 11q28 11 50 32t32 49q6 16 10 40t6 58 1 53 0 59 0 43 0 43 0 59-1 53-6 58-10 40q-11 28-32 49t-50 32q-16 6-39 11t-58 5-54 2-59 0-42 0z m428-352q0-128-3-177-5-116-69-180t-179-69q-50-3-177-3t-177 3q-116 6-180 69t-69 180q-3 49-3 177t3 177q5 116 69 180t180 69q49 3 177 3t177-3q116-6 179-69t69-180q3-49 3-177z" horiz-adv-x="857.1" />

<glyph glyph-name="pinterest" unicode="&#xf231;" d="M0 517q0 60 21 113t58 93 85 69 103 44 113 14q88 0 164-37t123-108 47-160q0-54-10-105t-34-99-56-83-80-58-106-21q-38 0-75 18t-54 49q-5-22-15-63t-14-53-11-40-15-39-17-35-26-44-35-48l-7-3-5 6q-9 88-9 105 0 51 12 115t37 161 29 113q-18 36-18 94 0 47 29 87t74 41q34 0 53-23t19-57q0-37-24-106t-25-105q0-35 25-58t61-23q31 0 57 14t44 38 31 53 21 61 11 62 4 56q0 96-61 150t-160 54q-111 0-186-72t-75-183q0-25 7-48t15-36 15-26 7-17q0-15-8-40t-21-25q-1 0-9 1-29 9-51 31t-34 53-18 60-6 60z" horiz-adv-x="714.3" />
</font>
</defs>
</svg>
